↑↓torrent.by
Поиск
Логин:  Регистрация
Пароль:

Холодная сталь / Cold Steel (1987) BDRip 720p от DoMiNo & селезень | P2, A

download Скачать торрент-файл   magnet Магнитная ссылка Размер: 4.86 GB Добавлен: 2024-05-15 05:00
Пиры будут получены из сети DHT
Последний сидер был замечен 2024-05-15 05:00
Информация о фильме Название: Холодная сталь Оригинальное название: Cold Steel Год выхода: 1987 Жанр: Боевик, триллер Режиссер: Дороти Энн Пьюзо В ролях: Брэд Дэвис, Шэрон Стоун, Джонатан Бэнкс, Джей Аковоне, Адам Энт, Эдди Иган, Сай Ричардсон, Энн Хейни, Рон Карабацос, Уильям Ланто, Энтони Ла Палья О фильме: В рождественский вечер от рук психопата погибает отец полицейского Джона Мойдана. Потрясенный Джон клянется найти убийцу и покарать. Но, приступив к расследованию, он не подозревает, что сам становится мишенью в дьявольском плане мести коварного преступника Страна: США Продолжительность: 01:30:55 Перевод 1: Профессиональный (двухголосый закадровый) Перевод 2: Авторский (одноголосый закадровый) - Сергей Визгунов Перевод 3: Авторский (одноголосый закадровый) - Леонид Володарский Субтитры: Английские Файл Формат: Matroska Качество: BDRip 720p Видео: 1280x692 at 23.976 fps, x264@L4.1, ~6855 kbps Аудио 1: AC3, 2 ch, ~192 kbps - | Русский | | DVO Аудио 2: AC3, 2 ch, ~192 kbps - | Русский | | Сергей Визгунов Аудио 3: AC3, 2 ch, ~192 kbps - | Русский | | Леонид Володарский Аудио 4: AC3, 2 ch, ~224 kbps - | Английский | | Original Формат субтитров: softsub (SRT) ***Рип от: -=DoMiNo=-
[+] M/IGeneral Unique ID : 35085658291531835553315784928904975418 (0x1A6540828FE784A73BA8AEED26B1943A) Complete name : T:Cold.Steel.1987.BDRip.720p.x264.seleZen.mkv Format : Matroska Format version : Version 4 File size : 4.86 GiB Duration : 1 h 30 min Overall bit rate : 7 658 kb/s Frame rate : 23.976 FPS Movie name : Cold.Steel.1987.BDRip.720p.x264.seleZen Encoded date : 2024-05-14 10:46:20 UTC Writing application : mkvmerge v84.0 ('Sleeper') 64-bit Writing library : libebml v1.4.5 + libmatroska v1.7.1 Cover : Yes Attachments : cover.jpg / small_cover.jpg Video ID : 1 Format : AVC Format/Info : Advanced Video Codec Format profile : High@L4.1 Format settings : CABAC / 9 Ref Frames Format settings, CABAC : Yes Format settings, Reference : 9 frames Codec ID : V_MPEG4/ISO/AVC Duration : 1 h 30 min Bit rate : 6 855 kb/s Width : 1 280 pixels Height : 692 pixels Display aspect ratio : 1.85:1 Frame rate mode : Constant Frame rate : 23.976 (24000/1001) FPS Color space : YUV Chroma subsampling : 4:2:0 Bit depth : 8 bits Scan type : Progressive Bits/(Pixel*Frame) : 0.323 Stream size : 4.35 GiB (90%) Title : -=DoMiNo=- Writing library : x264 core 164 r3190 -DoMiNo Encoding settings : cabac=1 / ref=9 / deblock=1:-1:-1 / analyse=0x3:0x133 / me=umh / subme=10 / psy=1 / psy_rd=1.00:0.00 / mixed_ref=1 / me_range=32 / chroma_me=1 / trellis=2 / 8x8dct=1 / cqm=0 / deadzone=21,11 / fast_pskip=0 / chroma_qp_offset=-2 / threads=22 / lookahead_threads=5 / sliced_threads=0 / nr=0 / decimate=1 / interlaced=0 / bluray_compat=0 / constrained_intra=0 / bframes=16 / b_pyramid=2 / b_adapt=2 / b_bias=0 / direct=3 / weightb=1 / open_gop=0 / weightp=2 / keyint=240 / keyint_min=23 / scenecut=40 / intra_refresh=0 / rc_lookahead=60 / rc=crf / mbtree=0 / crf=19.5 / qcomp=0.60 / qpmin=0 / qpmax=69 / qpstep=4 / vbv_maxrate=50000 / vbv_bufsize=62500 / crf_max=0.0 / nal_hrd=none / filler=0 / ip_ratio=1.35 / pb_ratio=1.25 / aq=1:1.00 Language : English Default : Yes Forced : No Color range : Limited Color primaries : BT.709 Transfer characteristics : BT.709 Matrix coefficients : BT.709 Audio #1 ID : 2 Format : AC-3 Format/Info : Audio Coding 3 Commercial name : Dolby Digital Codec ID : A_AC3 Duration : 1 h 30 min Bit rate mode : Constant Bit rate : 192 kb/s Channel(s) : 2 channels Channel layout : L R Sampling rate : 48.0 kHz Frame rate : 31.250 FPS (1536 SPF) Compression mode : Lossy Stream size : 125 MiB (3%) Title : DVO Language : Russian Service kind : Complete Main Default : Yes Forced : No Dialog Normalization : -31 dB compr : -0.28 dB dsurmod : Not Dolby Surround encoded ltrtcmixlev : 3.0 dB ltrtsurmixlev : 3.0 dB lorocmixlev : 3.0 dB lorosurmixlev : 3.0 dB dialnorm_Average : -31 dB dialnorm_Minimum : -31 dB dialnorm_Maximum : -31 dB Audio #2 ID : 3 Format : AC-3 Format/Info : Audio Coding 3 Commercial name : Dolby Digital Codec ID : A_AC3 Duration : 1 h 30 min Bit rate mode : Constant Bit rate : 192 kb/s Channel(s) : 2 channels Channel layout : L R Sampling rate : 48.0 kHz Frame rate : 31.250 FPS (1536 SPF) Compression mode : Lossy Stream size : 125 MiB (3%) Title : AVO Сергей Визгунов Language : Russian Service kind : Complete Main Default : No Forced : No Dialog Normalization : -31 dB compr : -0.28 dB dsurmod : Not Dolby Surround encoded ltrtcmixlev : 3.0 dB ltrtsurmixlev : 3.0 dB lorocmixlev : 3.0 dB lorosurmixlev : 3.0 dB dialnorm_Average : -31 dB dialnorm_Minimum : -31 dB dialnorm_Maximum : -31 dB Audio #3 ID : 4 Format : AC-3 Format/Info : Audio Coding 3 Commercial name : Dolby Digital Codec ID : A_AC3 Duration : 1 h 30 min Bit rate mode : Constant Bit rate : 192 kb/s Channel(s) : 2 channels Channel layout : L R Sampling rate : 48.0 kHz Frame rate : 31.250 FPS (1536 SPF) Compression mode : Lossy Stream size : 125 MiB (3%) Title : AVO Леонид Володарский Language : Russian Service kind : Complete Main Default : No Forced : No Dialog Normalization : -31 dB compr : -0.28 dB dsurmod : Not Dolby Surround encoded ltrtcmixlev : 3.0 dB ltrtsurmixlev : 3.0 dB lorocmixlev : 3.0 dB lorosurmixlev : 3.0 dB dialnorm_Average : -31 dB dialnorm_Minimum : -31 dB dialnorm_Maximum : -31 dB Audio #4 ID : 5 Format : AC-3 Format/Info : Audio Coding 3 Commercial name : Dolby Digital Codec ID : A_AC3 Duration : 1 h 30 min Bit rate mode : Constant Bit rate : 224 kb/s Channel(s) : 2 channels Channel layout : L R Sampling rate : 48.0 kHz Frame rate : 31.250 FPS (1536 SPF) Compression mode : Lossy Stream size : 146 MiB (3%) Title : Original Language : English Service kind : Complete Main Default : No Forced : No Dialog Normalization : -27 dB compr : -0.28 dB mixlevel : 285 dB roomtyp : 3 ltrtcmixlev : -3.0 dB ltrtsurmixlev : -3.0 dB lorocmixlev : -3.0 dB lorosurmixlev : -3.0 dB dialnorm_Average : -27 dB dialnorm_Minimum : -27 dB dialnorm_Maximum : -27 dB Text ID : 6 Format : UTF-8 Codec ID : S_TEXT/UTF8 Codec ID/Info : UTF-8 Plain Text Duration : 1 h 28 min Bit rate : 40 b/s Frame rate : 0.158 FPS Count of elements : 842 Stream size : 26.3 KiB (0%) Title : English Full by SDI Media Group Language : English Default : No Forced : No Menu 00:00:00.000 : en:Main Title 00:03:39.045 : en:Jumping the Train 00:04:28.010 : en:Christmas Office Perty 00:07:30.943 : en:Mick 00:09:03.539 : en:"You Remember Me" 00:10:48.807 : en:Home for Chrictmas 00:18:33.563 : en:2-11 in Progress 00:20:09.659 : en:Punk Interrogation 00:21:32.492 : en:Off the Case 00:23:26.272 : en:Kathy Connors 00:29:07.697 : en:The Iceman Cometh 00:32:23.184 : en:Lust at First Sight 00:36:03.563 : en:Gun Store Heist 00:37:30.222 : en:Spooky & Fishman 00:40:30.712 : en:No More Mr. Nice Guy 00:43:10.080 : en:Mick Scores Iceman's Meth 00:44:39.836 : en:Racetrack Pursuit 00:49:27.040 : en:Involuntary Leave 00:52:06.658 : en:Sushi with Kathy 00:54:27.423 : en:"I'm Your New Customer" 00:57:49.082 : en:Checking on His Interest 01:02:28.821 : en:"I Hate You" 01:04:46.083 : en:What Really Happened to Eddie 01:10:36.100 : en:Long Time no See 01:12:45.804 : en:An Enchanting Moment in Life 01:14:44.139 : en:"Like to Get Together Again?" 01:19:33.374 : en:Construction Site Shoot-Out 01:22:46.213 : en:Setting All Differences 01:27:38.484 : en:End Credits
Релиз: Присоединяйся к: Кликай на баннеры.

Всего файлов в раздаче: 1 
Cold.Steel.1987.BDRip.720p.x264.seleZen.mkv4.86 GB

Кто качает (только для создателя раздачи и модераторов): Локальные пиры отсутствуют

Комментарии


Зарегистрируйтесь чтобы добавить комментарий
Торрент клиент
byTorrent - программа для загрузки торрент-файлов.

Скачать byTorrent.exe (1,5 МБ)

Скачать byTorrent.zip (0,6 МБ)

Поддержи torrent.by
российских рублей
(300 российских рублей это 4$)

Обратная связь rss

End game ©