↑↓torrent.by
Поиск
Логин:  Регистрация
Пароль:

Troy Cassar-Daley - Between The Fires [24-bit Hi-Res] (2024) FLAC

download Скачать торрент-файл   magnet Магнитная ссылка Размер: 829.11 MB Добавлен: 2024-05-15 05:00
Пиры будут получены из сети DHT
Последний сидер был замечен 2024-05-25 09:56
Название: Between The Fires Исполнитель: Troy Cassar-Daley Год: 2024 Жанр: Blues, Country, Folk Издатель (лейбл): Sony Music Entertainment Продолжительность: 01:10:10 Формат/Кодек: FLAC Тип рипа: Tracks Битрейт аудио: Lossless Разрядность: 24 Bit/48 kHz
[+] Трек-лист 01. Between The Fires (00:04:55) 02. Every Other Day (00:05:02) 03. Let's Ride (00:04:17) 04. We Still Have A Chance (00:05:06) 05. Some Days (00:03:54) 06. Old Road Home (00:04:39) 07. Windradyne (00:03:56) 08. Good And Bad (00:04:35) 09. Ready For The Rain (00:03:36) 10. Dreams (00:04:46) 11. This World Alone (00:04:11) 12. Thankful (00:05:21) 13. Till I Get Over You (00:04:10) 14. Congratulations (00:07:00) 15. Moving On (00:04:42)
[+] DRM foobar2000 1.5.5 / Замер динамического диапазона (DR) 1.1.1 ------------------------------------------------------------------------------ Анализ: Troy Cassar-Daley / Between The Fires -------------------------------------------------------------------------------- DR Пики RMS Продолжительность трека -------------------------------------------------------------------------------- DR6 -0.27 дБ -7.27 дБ 4:55 01-Between The Fires DR6 -0.27 дБ -7.97 дБ 5:02 02-Every Other Day DR6 -0.27 дБ -8.22 дБ 4:17 03-Let's Ride DR6 -0.27 дБ -8.02 дБ 5:06 04-We Still Have A Chance DR7 -0.27 дБ -9.29 дБ 3:54 05-Some Days DR5 -0.27 дБ -6.91 дБ 4:39 06-Old Road Home DR6 -0.27 дБ -7.55 дБ 3:56 07-Windradyne DR6 -0.27 дБ -8.99 дБ 4:35 08-Good And Bad DR5 -0.27 дБ -7.31 дБ 3:36 09-Ready For The Rain DR6 -0.27 дБ -8.15 дБ 4:46 10-Dreams DR5 -0.27 дБ -7.02 дБ 4:11 11-This World Alone DR6 -0.27 дБ -7.67 дБ 5:21 12-Thankful DR6 -0.27 дБ -6.61 дБ 4:10 13-Till I Get Over You DR7 -0.27 дБ -9.09 дБ 7:00 14-Congratulations DR7 -0.27 дБ -10.72 дБ 4:42 15-Moving On -------------------------------------------------------------------------------- Количество треков: 15 Реальные значения DR: DR6 Частота: 48000 Гц Каналов: 2 Разрядность: 24 Битрейт: 1445 кбит/с Кодек: FLAC ================================================================================
Время раздачи: 24/7 (минимум до появления первых 3-5 скачавших, на раздачи не возвращаюсь) Первое правило участника файлообмена: "Скачал сам - дай скачать другому!"

Всего файлов в раздаче: 16 
01. Between the Fires.flac59.71 MB
02. Every Other Day.flac61.02 MB
03. Let's Ride.flac51.87 MB
04. We Still Have a Chance.flac61.97 MB
05. Some Days.flac43.78 MB
06. Old Road Home.flac56.91 MB
07. Windradyne.flac46.66 MB
08. Good and Bad.flac51.87 MB
09. Ready for the Rain.flac44.03 MB
10. Dreams.flac54.08 MB
Показать все файлы

Похожие раздачи по запросу - Troy
2024-05-19 magnet Troy Redfern - Invocation (2024) MP3 96.28 MB ↑ 0 ↓ 0

Комментарии


Зарегистрируйтесь чтобы добавить комментарий
Торрент клиент
byTorrent - программа для загрузки торрент-файлов.

Скачать byTorrent.exe (1,5 МБ)

Скачать byTorrent.zip (0,6 МБ)

Поддержи torrent.by
российских рублей
(300 российских рублей это 4$)

Обратная связь rss

End game ©