↑↓torrent.by
Поиск
Логин:  Регистрация
Пароль:

Меню / The Menu (2022) HDRip-AVC | P | HDrezka Studio

download Скачать торрент-файл   magnet Магнитная ссылка Размер: 745.73 MB Добавлен: 2024-05-15 11:00
Пиры будут получены из сети DHT
Последний сидер был замечен 2024-05-16 10:52
Информация о фильме Название: Меню Оригинальное название: The Menu Год выхода: 2022 Жанр: триллер, комедия Режиссер: Марк Майлод В ролях: Рэйф Файнс, Аня Тейлор-Джой, Николас Холт, Хонг Чау, Джанет Мактир, Пол Адельштейн, Джон Легуизамо, Эйми Карреро, Рид Бирни, Джудит Лайт О фильме: Молодая пара в компании других богатеев отправляется на эксклюзивный ужин в знаменитый ресторан, который находится на небольшом острове. Одно изысканное блюдо сменяет другое, когда выясняется, что шеф-повар и его команда неплохо изучили сегодняшних гостей и прекрасно осведомлены не только об их вкусовых предпочтениях. И кроме того, меню содержит неприятные сюрпризы. Рейтинг MPAA: R - лицам до 17 лет обязательно присутствие взрослого Страна: США Студия: Alienworx Productions, Alienworx Productions, Hyperobject Industries Продолжительность: 01:47:08 Перевод: Профессиональный (многоголосый, закадровый) | HDrezka Studio Файл Формат: MKV Качество: HDRip-AVC (исх. BDRip 1080p от ExKinoRay) * Видео: High@L3.2, 800x340 (2.35:1), at 23.976 fps, 906 kbps Аудио: AAC LC SBR (HE-AAC), 48.0 kHz, 2 ch, 64 kbps Субтитры: Русские (Forced, Full), Английские (SDH) * за исходник спасибо potroks
[+] MediaInfoGeneral Unique ID : 200852508034589621428348319070792309517 (0x971AC934DD7FC177ADDF5D239561DB0D) Complete name : The.Menu.2022.HDrS.HDRip-AVC.mkv Format : Matroska Format version : Version 4 File size : 746 MiB Duration : 1 h 47 min Overall bit rate : 973 kb/s Encoded date : UTC 2024-05-09 07:00:45 Writing application : mkvmerge v8.5.0 ('Vanishing Act') 32bit Writing library : libebml v1.3.1 + libmatroska v1.4.2 Video ID : 1 Format : AVC Format/Info : Advanced Video Codec Format profile : High@L3.2 Format settings : CABAC / 12 Ref Frames Format settings, CABAC : Yes Format settings, RefFrames : 12 frames Codec ID : V_MPEG4/ISO/AVC Duration : 1 h 47 min Bit rate : 906 kb/s Width : 800 pixels Height : 340 pixels Display aspect ratio : 2.35:1 Frame rate mode : Constant Frame rate : 23.976 (24000/1001) FPS Color space : YUV Chroma subsampling : 4:2:0 Bit depth : 8 bits Scan type : Progressive Bits/(Pixel*Frame) : 0.139 Stream size : 695 MiB (93%) Title : The Menu Writing library : x264 core 152 r2851 ba24899 Encoding settings : cabac=1 / ref=12 / deblock=1:-2:-2 / analyse=0x3:0x133 / me=umh / subme=10 / psy=1 / psy_rd=1.00:0.00 / mixed_ref=1 / me_range=32 / chroma_me=1 / trellis=2 / 8x8dct=1 / cqm=0 / deadzone=21,11 / fast_pskip=0 / chroma_qp_offset=-2 / threads=6 / lookahead_threads=1 / sliced_threads=0 / nr=0 / decimate=0 / interlaced=0 / bluray_compat=0 / constrained_intra=0 / bframes=14 / b_pyramid=2 / b_adapt=2 / b_bias=0 / direct=3 / weightb=1 / open_gop=0 / weightp=2 / keyint=240 / keyint_min=23 / scenecut=40 / intra_refresh=0 / rc=2pass / mbtree=0 / bitrate=906 / ratetol=1.0 / qcomp=0.60 / qpmin=0 / qpmax=69 / qpstep=4 / cplxblur=20.0 / qblur=0.5 / ip_ratio=1.15 / pb_ratio=1.25 / aq=2:1.00 Language : English Default : Yes Forced : No Audio ID : 2 Format : AAC LC SBR Format/Info : Advanced Audio Codec Low Complexity with Spectral Band Replication Commercial name : HE-AAC Format settings : Explicit Codec ID : A_AAC-2 Duration : 1 h 47 min Bit rate : 64.0 kb/s Channel(s) : 2 channels Channel layout : L R Sampling rate : 48.0 kHz Frame rate : 23.438 FPS (2048 SPF) Compression mode : Lossy Stream size : 49.0 MiB (7%) Title : MVO - HDrezka Studio Language : Russian Default : Yes Forced : No Text #1 ID : 3 Format : UTF-8 Codec ID : S_TEXT/UTF8 Codec ID/Info : UTF-8 Plain Text Duration : 1 h 38 min Bit rate : 2 b/s Count of elements : 35 Stream size : 1.94 KiB (0%) Title : Forced Language : Russian Default : Yes Forced : No Text #2 ID : 4 Format : UTF-8 Codec ID : S_TEXT/UTF8 Codec ID/Info : UTF-8 Plain Text Duration : 1 h 38 min Bit rate : 121 b/s Count of elements : 1729 Stream size : 88.1 KiB (0%) Title : Full Language : Russian Default : No Forced : No Text #3 ID : 5 Format : UTF-8 Codec ID : S_TEXT/UTF8 Codec ID/Info : UTF-8 Plain Text Duration : 1 h 40 min Bit rate : 79 b/s Count of elements : 1895 Stream size : 58.6 KiB (0%) Title : SDH Language : English Default : No Forced : No Menu 00:00:00.000 : en:Chapter 01 00:06:12.122 : en:Chapter 02 00:09:27.358 : en:Chapter 03 00:12:08.895 : en:Chapter 04 00:14:56.896 : en:Chapter 05 00:21:30.331 : en:Chapter 06 00:28:07.895 : en:Chapter 07 00:35:38.261 : en:Chapter 08 00:38:15.877 : en:Chapter 09 00:42:38.723 : en:Chapter 10 00:48:13.599 : en:Chapter 11 00:55:00.297 : en:Chapter 12 01:01:24.431 : en:Chapter 13 01:04:47.884 : en:Chapter 14 01:08:24.767 : en:Chapter 15 01:11:16.647 : en:Chapter 16 01:14:04.398 : en:Chapter 17 01:16:06.061 : en:Chapter 18 01:20:53.057 : en:Chapter 19 01:23:27.169 : en:Chapter 20 01:28:05.614 : en:Chapter 21 01:33:37.737 : en:Chapter 22 01:39:37.388 : en:Chapter 23 01:40:14.967 : en:Chapter 24
[+] Скриншоты

Всего файлов в раздаче: 1 
The.Menu.2022.HDrS.HDRip-AVC.mkv745.73 MB

Похожие раздачи по запросу - Меню
2024-05-15 magnet Меню / The Menu (2022) BDRip-AVC от DoMiNo & селезень | P, A 2.39 GB ↑ 0 ↓ 0
2024-05-07 magnet Меню / The Menu (2022) BDRip 720p от DoMiNo & селезень | D, P, A 3.55 GB ↑ 0 ↓ 0
2024-05-07 magnet Меню / The Menu (2022) BDRip-AVC от DoMiNo & селезень | D 1.53 GB ↑ 0 ↓ 0
2023-06-25 magnet Александра Ситнова - Меню для всей семьи. Просто и полезно (2023) PDF 2.92 MB ↑ 0 ↓ 0

Комментарии


Зарегистрируйтесь чтобы добавить комментарий
Торрент клиент
byTorrent - программа для загрузки торрент-файлов.

Скачать byTorrent.exe (1,5 МБ)

Скачать byTorrent.zip (0,6 МБ)

Поддержи torrent.by
российских рублей
(300 российских рублей это 4$)

Обратная связь rss

End game ©