↑↓torrent.by
Поиск
Логин:  Регистрация
Пароль:

Запасный выход [S01] (2020) HDTV 1080р от Files-x

download Скачать торрент-файл   magnet Магнитная ссылка Размер: 9.99 GB Добавлен: 2024-05-15 11:00
Пиры будут получены из сети DHT
Последний сидер был замечен 2024-05-15 11:00
Информация о фильме Оригинальное название: Запасный выход Год выхода: 2020 Жанр: Детектив, комедия, медицина Режиссер: Сергей Чекалов В ролях: Юрий Стоянов, Роман Мадянов, Даниил Вахрушев, Юлия Галкина, Сергей Погосян, Олег Алмазов, Юлия Полынская, Александр Андриенко, Алексей Дмитриев О фильме: В судебно-медицинском морге провинциальной больницы работают два санитара – бывший уголовник-рецидивист Пал Палыч Шишко (Юрий Стоянов) и бывший оперуполномоченный Николай Иванович Кедров (Роман Мадянов). Они совершенно разные, недолюбливают друг друга, а на людях общаются подчёркнуто официально. Их объединяет только работа. Однажды в морге появляется молодой следователь – старший лейтенант Дмитрий Сайкин (Данил Вахрушев). В управлении его считают неудачником и вешают на него самые безнадёжные дела. Но всё меняется, когда Сайкин становится свидетелем того, как Кедров и Шишко несколькими фразами разбивают выводы эксперта и не только устанавливают точное место, время и способ убийства, но и детально описывают внешность убийцы, назвав в конце его имя. А лавры отдают Сайкину... Страна: Россия Студия: ВайТ Медиа по заказу НТВ Продолжительность: 3 х 01:05:10 Перевод: Не требуется Файл Кодек: h.264 Качество: HDTV 1080р Видео: MPEG-4 AVC, ~ 6502 Кбит/с, 1920x1080, 25 кадр/с Звук: MP2, 2 ch, 192 Кбит/с
[+] Скриншоты
[+] Содержание Дело № 1 Отелло Дело № 2 Да Винчи Дело № 3 Сирано Де Бержерак
[+] MediaInfo General ID : 1 (0x1) Complete name : C:01.Запасный выход.s01.E01 (Дело № 1 Отелло).(2020).HDTV.(1080р).by.Nicodem.Files-x.ts Format : MPEG-TS File size : 3.21 GiB Duration : 1h 5mn Overall bit rate : 7 044 Kbps Maximum Overall bit rate : 35.5 Mbps Video ID : 4113 (0x1011) Menu ID : 1 (0x1) Format : AVC Format/Info : Advanced Video Codec Format profile : High@L4.1 Format settings, CABAC : No Format settings, ReFrames : 3 frames Codec ID : 27 Duration : 1h 5mn Bit rate mode : Variable Bit rate : 6 502 Kbps Maximum bit rate : 40.0 Mbps Width : 1 920 pixels Height : 1 080 pixels Display aspect ratio : 16:9 Frame rate : 25.000 fps Color space : YUV Chroma subsampling : 4:2:0 Bit depth : 8 bits Scan type : Progressive Bits/(Pixel*Frame) : 0.125 Stream size : 2.96 GiB (92%) Language : English Audio ID : 4352 (0x1100) Menu ID : 1 (0x1) Format : MPEG Audio Format version : Version 1 Format profile : Layer 2 Codec ID : 4 Duration : 1h 5mn Bit rate mode : Constant Bit rate : 192 Kbps Channel(s) : 2 channels Sampling rate : 48.0 KHz Compression mode : Lossy Stream size : 89.5 MiB (3%)
Релиз от:

Всего файлов в раздаче: 3 
01.Запасный выход.s01.E01 (Дело № 1 Отелло).(2020).HDTV.(1080р).by.Nicodem.Files-x.ts3.21 GB
02.Запасный выход.s01.E02 (Дело № 2 Да Винчи).(2020).HDTV.(1080р).by.Nicodem.Files-x.ts3.76 GB
03.Запасный выход.s01.E03 (Дело № 3 Сирано Де Бержерак).(2020).HDTV.(1080р).by.Nicodem.Files-x.ts3.02 GB

Похожие раздачи по запросу - Запасный
Вчера magnet Запасный выход [02х01-08 из 16] (2023) WEBRip-AVC от Files-x 5.12 GB ↑ 0 ↓ 0
Вчера magnet Запасный выход [01-02x01-12 из 20] (2020-2023) WEBRip 1080p от ExKinoRay 19.98 GB ↑ 0 ↓ 0
2024-05-19 magnet Запасный выход [S01] (2020) WEBRip-AVC от Generalfilm | КПК 924.03 MB ↑ 0 ↓ 0
2024-05-18 magnet Запасный выход [02х01-06 из 06] (2023) WEBRip-AVC от Files-x 3.84 GB ↑ 0 ↓ 0
2024-05-18 magnet Запасный выход [02х01-06 из 16] (2024) WEBRip от Files-x 3.84 GB ↑ 0 ↓ 0
2024-05-18 magnet Запасный выход [02х01-06 из 16] (2024) WEBRip 720p от Files-x 6.80 GB ↑ 0 ↓ 0
2024-05-18 magnet Запасный выход [01-02x01-10 из 20] (2020-2023) WEBRip 1080p от ExKinoRay 16.65 GB ↑ 0 ↓ 0

Комментарии


Зарегистрируйтесь чтобы добавить комментарий
Торрент клиент
byTorrent - программа для загрузки торрент-файлов.

Скачать byTorrent.exe (1,5 МБ)

Скачать byTorrent.zip (0,6 МБ)

Поддержи torrent.by
российских рублей
(300 российских рублей это 4$)

Обратная связь rss

End game ©