↑↓torrent.by
Поиск
Логин:  Регистрация
Пароль:

Министерство неджентльменских дел / The Ministry of Ungentlemanly Warfare (2024) WEB-DLRip-AVC от ExKinoRay | D, P2

download Скачать торрент-файл   magnet Магнитная ссылка Размер: 1.07 GB Раздают: 1 Качают: 1 Добавлен: 2024-05-15 11:00
Пиры будут получены из сети DHT
Последний сидер был замечен сегодня в 17:11
Информация о фильме Название: Министерство неджентльменских дел Оригинальное название: The Ministry of Ungentlemanly Warfare Год выхода: 2024 Жанр: Боевик, драма, военный, история Режиссер: Гай Ричи В ролях: Генри Кавилл, Эйса Гонсалес, Алан Ричсон, Генри Голдинг, Хиро Файннс-Тиффин, Кэри Элвис, Алекс Петтифер, Тиль Швайгер, Бабс Олусанмокун, Фредди Фокс, Генри Зага, Алессандро Бабалола, Рори Киннер, Джеймс Уилби, Саймон Пейсли Дэй, Пол Энтони-Барбер, Тим Сейфи, Рассел Балог, Мэтью Хоксли, Лука Маррокко, Бикия Грэм Дуглас, Джордж Эспри, Виктор Ошин, Марк Остервен, Дэнни Сапани, Пол О'Келли, Николас Салмон О фильме: 1942 год, Великобритания. Они - лучшие из лучших. Отпетые авантюристы и первоклассные спецы, привыкшие действовать в одиночку. Но когда на кону стоит судьба всего мира, им приходится объединиться в сверхсекретное боевое подразделение и отправиться на выполнение дерзкой миссии против нацистов. Теперь их дело - война, и вести они её будут совершенно не по-джентльменски. Страна: США, Великобритания, Турция Студия: Black Bear, Jerry Bruckheimer Films, Lions Gate Films, Media Capital Technologies Продолжительность: 02:00:20 Перевод: Дублированный, профессиональный двухголосый Файл Формат: MKV Качество: WEB-DLRip-AVC Видео: MPEG-4 AVC, 768x320, 1110 Кбит/с Аудио #1: AAC-HE, 2 ch, 84 Кбит/с | Дубляж, Мосфильм-Мастер | Аудио #2: AAC-HE, 2 ch, 84 Кбит/с | Профессиональный двухголосый, Кубик в кубе | Субтитры: Русские (Forced, full)
[+] MIОбщее Уникальный идентификатор : 300410131412646321530774759593537803067 (0xE200E30342885344A7651A17F0CD933B) Полное имя : D:MOVIESThe.Ministry.of.Ungentlemanly.Warfare.2024.WEB-DLRip-AVC.ExKinoRay.mkv Формат : Matroska Версия формата : Version 4 Размер файла : 1,07 Гбайт Продолжительность : 2 ч. 0 мин. Общий битрейт : 1 279 Кбит/сек Частота кадров : 23,976 кадра/сек Дата кодирования : 2024-05-15 04:21:11 UTC Программа кодирования : mkvmerge v45.0.0 ('Heaven in Pennies') 64-bit Библиотека кодирования : libebml v1.3.10 + libmatroska v1.5.2 Видео Идентификатор : 1 Формат : AVC Формат/Информация : Advanced Video Codec Профиль формата : High@L4.1 Настройки формата : CABAC / 12 Ref Frames Параметр CABAC формата : Да Параметр RefFrames формата : 12 кадров Идентификатор кодека : V_MPEG4/ISO/AVC Продолжительность : 2 ч. 0 мин. Битрейт : 1 110 Кбит/сек Ширина : 768 пикселей Высота : 320 пикселей Соотношение сторон дисплея : 2,40:1 Режим частоты кадров : Постоянный Частота кадров : 23,976 (24000/1001) кадра/сек Цветовое пространство : YUV Цветовая субдискретизация : 4:2:0 Битовая глубина : 8 бит Тип развёртки : Прогрессивная Бит/(Пиксели*Кадры) : 0.188 Размер потока : 954 Мбайт (87%) Библиотека кодирования : x264 core 164 r3190 7ed753b Параметры библиотеки кодирования : cabac=1 / ref=12 / deblock=1:-2:-1 / analyse=0x3:0x133 / me=umh / subme=10 / psy=1 / psy_rd=1.05:0.12 / mixed_ref=1 / me_range=32 / chroma_me=1 / trellis=2 / 8x8dct=1 / cqm=0 / deadzone=21,11 / fast_pskip=0 / chroma_qp_offset=-3 / threads=6 / lookahead_threads=1 / sliced_threads=0 / nr=0 / decimate=0 / interlaced=0 / bluray_compat=0 / constrained_intra=0 / bframes=12 / b_pyramid=2 / b_adapt=2 / b_bias=0 / direct=3 / weightb=1 / open_gop=0 / weightp=2 / keyint=240 / keyint_min=23 / scenecut=40 / intra_refresh=0 / rc=2pass / mbtree=0 / bitrate=1110 / ratetol=1.0 / qcomp=0.60 / qpmin=0 / qpmax=69 / qpstep=4 / cplxblur=20.0 / qblur=0.5 / ip_ratio=1.40 / pb_ratio=1.30 / aq=3:1.00 Язык : Английский По умолчанию : Да Принудительно : Нет Цветовой диапазон : Limited Основные цвета : BT.709 Характеристики трансфера : BT.709 Коэффициенты матрицы : BT.709 Аудио #1 Идентификатор : 2 Формат : AAC LC SBR Формат/Информация : Advanced Audio Codec Low Complexity with Spectral Band Replication Коммерческое название : HE-AAC Настройки формата : Explicit Идентификатор кодека : A_AAC-2 Продолжительность : 2 ч. 0 мин. Битрейт : 84,0 Кбит/сек Канал(-ы) : 2 канала Расположение каналов : L R Частота дискретизации : 48,0 КГц Частота кадров : 23,438 кадра/сек (2048 SPF) Метод сжатия : С потерями Задержка видео : 31 мс. Размер потока : 72,2 Мбайт (7%) Заголовок : Дубляж - Мосфильм Язык : Русский По умолчанию : Да Принудительно : Нет Аудио #2 Идентификатор : 3 Формат : AAC LC SBR Формат/Информация : Advanced Audio Codec Low Complexity with Spectral Band Replication Коммерческое название : HE-AAC Настройки формата : Explicit Идентификатор кодека : A_AAC-2 Продолжительность : 2 ч. 0 мин. Битрейт : 84,0 Кбит/сек Канал(-ы) : 2 канала Расположение каналов : L R Частота дискретизации : 48,0 КГц Частота кадров : 23,438 кадра/сек (2048 SPF) Метод сжатия : С потерями Задержка видео : 31 мс. Размер потока : 72,2 Мбайт (7%) Заголовок : Кубик в кубе Язык : Русский По умолчанию : Нет Принудительно : Нет Текст #1 Идентификатор : 4 Формат : UTF-8 Идентификатор кодека : S_TEXT/UTF8 Идентификатор кодека/Информация : UTF-8 Plain Text Продолжительность : 1 ч. 49 мин. Битрейт : 10 бит/сек Частота кадров : 0,020 кадр/сек Число элементов : 129 Размер потока : 8,36 КиБ (0%) Заголовок : форсированные Язык : Русский По умолчанию : Да Принудительно : Нет Текст #2 Идентификатор : 5 Формат : UTF-8 Идентификатор кодека : S_TEXT/UTF8 Идентификатор кодека/Информация : UTF-8 Plain Text Продолжительность : 1 ч. 47 мин. Битрейт : 88 бит/сек Частота кадров : 0,219 кадр/сек Число элементов : 1409 Размер потока : 69,6 КиБ (0%) Заголовок : полные Язык : Русский По умолчанию : Нет Принудительно : Нет
[+] Скриншоты

Всего файлов в раздаче: 1 
The.Ministry.of.Ungentlemanly.Warfare.2024.WEB-DLRip-AVC.ExKinoRay.mkv1.07 GB

Похожие раздачи по запросу - Министерство
2024-05-14 magnet Министерство неджентльменских дел / The Ministry of Ungentlemanly Warfare (2024) UHD WEB-DL-HEVC 2160p | 4K | SDR | D, P2 15.32 GB ↑ 1 ↓ 5
2024-05-14 magnet Министерство неджентльменских дел / The Ministry of Ungentlemanly Warfare (2024) WEB-DL 1080p от Scarabey | D, P2 | Мосфильм-Мастер, Кубик в Кубе, ViruseProject 7.75 GB ↑ 2 ↓ 3
2024-05-14 magnet Министерство неджентльменских дел / The Ministry of Ungentlemanly Warfare (2024) UHD WEB-DL 2160p от Scarabey | 4K | HDR | D, P2 | Мосфильм-мастер, Кубик в кубе 13.99 GB ↑ 2 ↓ 8
2024-05-13 magnet Министерство неджентльменских дел / The Ministry of Ungentlemanly Warfare (2024) WEB-DL-HEVC 2160p | 4K | HDR | D, P2 | Локализованная версия 9.35 GB ↑ 0 ↓ 1
2024-05-13 magnet Министерство неджентльменских дел / The Ministry of Ungentlemanly Warfare (2024) WEB-DLRip-AVC от DoMiNo & селезень | D, P2 | Мосфильм-Мастер, Кубик в Кубе, ViruseProject | Локализованная версия 2.50 GB ↑ 0 ↓ 0
2024-05-13 magnet Министерство неджентльменских дел / The Ministry of Ungentlemanly Warfare (2024) WEB-DLRip 720p от DoMiNo & селезень | D | Мосфильм-Мастер 3.26 GB ↑ 0 ↓ 4
2024-05-13 magnet Министерство неджентльменских дел / The Ministry of Ungentlemanly Warfare (2024) WEB-DL-HEVC 2160p | 4K | SDR | D, P2 7.92 GB ↑ 0 ↓ 0

Комментарии


Зарегистрируйтесь чтобы добавить комментарий
Торрент клиент
byTorrent - программа для загрузки торрент-файлов.

Скачать byTorrent.exe (1,5 МБ)

Скачать byTorrent.zip (0,6 МБ)

Поддержи torrent.by
российских рублей
(300 российских рублей это 4$)

Обратная связь rss

End game ©