↑↓torrent.by
Поиск
Логин:  Регистрация
Пароль:

Годзилла и Конг: Новая империя / Godzilla x Kong: The New Empire [2024, фантастика, боевик, WEB-DLRip-AVC] Dub (Bravo Records Georgia)

download Скачать торрент-файл   magnet Магнитная ссылка Размер: 1.46 GB Раздают: 3 Качают: 3 Добавлен: il68k 2024-05-15 16:10
Пиры будут получены из сети DHT
Последний сидер был замечен сегодня в 09:09
Годзилла и Конг: Новая империя / Godzilla x Kong: The New Empire

Страна: США, Австралия Жанр: фантастика, боевик Год выпуска: 2024 Продолжительность: 01:54:38
Перевод: Профессиональный (дублированный) Bravo Records Georgia Субтитры: русские (forced) Оригинальная аудиодорожка: нет
Режиссер: Адам Вингард
В ролях: Дэн Стивенс, Ребекка Холл, Брайан Тайри Генри, Рейчел Хаус, Кэйли Хоттл, Фала Чэн, Алекс Фернс, Мерси Корнуэлл, Заид Секер
Описание: Могучий Конг и разъяренный Годзилла снова сталкиваются лицом к лицу с колоссальной неизвестной смертельной угрозой, таящейся в нашем мире, которая угрожает их существованию и существованию человека. Фильм исследует историю этих титанов, их происхождение, тайны Острова Черепа, а также раскрывает мифическую и эпическую битву между этими необычными существами, которые навсегда связали и объединили их с человечеством.

Качество видео: WEB-DLRip-AVC Формат видео: MKV Видео: 1152x480 (2.40:1), 23.976 fps, AVC, ~1631 Kbps, 0.123 bits/pixel Аудио: Russian, 48.0 KHz, AC3, 2 ch, 192 Kbps Релиз от: порошков
[+] MediaInfo
Формат                                   : Matroska
Версия формата                           : Version 4
Размер файла                             : 1,46 Гбайт
Продолжительность                        : 1 ч. 55 мин.
Режим общего битрейта                    : Переменный
Общий битрейт                            : 1 818 Кбит/сек
Частота кадров                           : 23,976 кадра/сек
Название фильма                          : Godzilla x Kong | Rip by порошков
Дата кодирования                         : 2024-05-14 15:29:32 UTC
Программа кодирования                    : mkvmerge v84.0 ('Sleeper') 64-bit
Библиотека кодирования                   : libebml v1.4.5 + libmatroska v1.7.1

Видео
Идентификатор                            : 1
Формат                                   : AVC
Формат/Информация                        : Advanced Video Codec
Профиль формата                          : High@L4.1
Настройки формата                        : CABAC / 15 Ref Frames
Параметр CABAC формата                   : Да
Параметр RefFrames формата               : 15 кадров
Идентификатор кодека                     : V_MPEG4/ISO/AVC
Продолжительность                        : 1 ч. 54 мин.
Вид битрейта                             : Переменный
Битрейт                                  : 1 631 Кбит/сек
Максимальный битрейт                     : 62,5 Мбит/сек
Ширина                                   : 1 152 пикселя
Высота                                   : 480 пикселей
Соотношение сторон дисплея               : 2,40:1
Режим частоты кадров                     : Постоянный
Частота кадров                           : 23,976 (24000/1001) кадра/сек
Цветовое пространство                    : YUV
Цветовая субдискретизация                : 4:2:0
Битовая глубина                          : 8 бит
Тип развёртки                            : Прогрессивная
Бит/(Пиксели*Кадры)                      : 0.123
Размер потока                            : 1,31 Гбайт (89%)
Библиотека кодирования                   : x264 core 164 r3164 c196240
Параметры библиотеки кодирования         : cabac=1 / ref=15 / deblock=1:-1:-1 / analyse=0x3:0x133 / me=umh / subme=10 / psy=1 / psy_rd=1.00:0.15 / mixed_ref=1 / me_range=24 / chroma_me=1 / trellis=2 / 8x8dct=1 / cqm=0 / deadzone=21,11 / fast_pskip=1 / chroma_qp_offset=-3 / threads=16 / lookahead_threads=3 / sliced_threads=0 / nr=0 / decimate=1 / interlaced=0 / bluray_compat=0 / constrained_intra=0 / bframes=15 / b_pyramid=2 / b_adapt=2 / b_bias=0 / direct=3 / weightb=1 / open_gop=0 / weightp=2 / keyint=240 / keyint_min=23 / scenecut=40 / intra_refresh=0 / rc_lookahead=60 / rc=2pass / mbtree=1 / bitrate=1631 / ratetol=1.0 / qcomp=0.60 / qpmin=0 / qpmax=69 / qpstep=4 / cplxblur=20.0 / qblur=0.5 / vbv_maxrate=62500 / vbv_bufsize=50000 / nal_hrd=vbr / filler=0 / ip_ratio=1.40 / aq=1:1.00
По умолчанию                             : Да
Принудительно                            : Нет

Аудио
Идентификатор                            : 2
Формат                                   : AC-3
Формат/Информация                        : Audio Coding 3
Коммерческое название                    : Dolby Digital
Идентификатор кодека                     : A_AC3
Продолжительность                        : 1 ч. 55 мин.
Вид битрейта                             : Постоянный
Битрейт                                  : 192 Кбит/сек
Канал(-ы)                                : 2 канала
Расположение каналов                     : L R
Частота дискретизации                    : 48,0 КГц
Частота кадров                           : 31,250 кадров/сек (1536 SPF)
Метод сжатия                             : С потерями
Размер потока                            : 158 Мбайт (11%)
Язык                                     : Русский
Вид сервиса                              : Complete Main
По умолчанию                             : Да
Принудительно                            : Нет
Нормализация звука речи                  : -27 dB
compr                                    : -0.28 dB
dsurmod                                  : Not Dolby Surround encoded
dialnorm_Average                         : -27 dB
dialnorm_Minimum                         : -27 dB
dialnorm_Maximum                         : -27 dB

Текст
Идентификатор                            : 3
Формат                                   : UTF-8
Идентификатор кодека                     : S_TEXT/UTF8
Идентификатор кодека/Информация          : UTF-8 Plain Text
Продолжительность                        : 1 ч. 43 мин.
Битрейт                                  : 4 бит/сек
Частота кадров                           : 0,011 кадр/сек
Число элементов                          : 67
Размер потока                            : 3,24 КиБ (0%)
Заголовок                                : forced
Язык                                     : Русский
По умолчанию                             : Да
Принудительно                            : Нет
[+] Скриншоты

Всего файлов в раздаче: 1 
Годзилла и Конг Новая империя_2024_WEB-DLRip-AVC.mkv1.46 GB

Похожие раздачи по запросу - Годзилла
2024-05-16 magnet Годзилла и Конг: Новая империя / Ґодзілла та Конґ: Нова імперія / Godzilla x Kong: The New Empire (2024) WEB-DL-HEVC 2160p | 4K | HDR | D | UKR 16.69 GB ↑ 0 ↓ 4
2024-05-16 magnet Годзилла и Конг: Новая империя / Godzilla x Kong: The New Empire (2024) WEB-DL 1080p от Jaskier | P 8.11 GB ↑ 0 ↓ 10
2024-05-16 magnet Годзилла и Конг: Новая империя / Ґодзілла та Конґ: Нова імперія / Godzilla x Kong: The New Empire (2024) WEB-DL 1080p | D | UKR 8.47 GB ↑ 0 ↓ 2
2024-05-15 magnet Годзилла и Конг: Новая империя / Godzilla x Kong: The New Empire (2024) WEB-DL 1080p от Scarabey | D | Bravo Records 8.11 GB ↑ 0 ↓ 4
2024-05-14 magnet Годзилла и Конг: Новая империя / Godzilla x Kong: The New Empire (2024) UHD WEB-DL-HEVC 2160p | 4K | SDR | D 13.06 GB ↑ 0 ↓ 4
2024-05-14 magnet Годзилла и Конг: Новая империя / Godzilla x Kong: The New Empire (2024) WEB-DLRip-AVC от ExKinoRay | D 744.37 MB ↑ 0 ↓ 1
2024-05-14 magnet Годзилла и Конг: Новая империя / Godzilla x Kong: The New Empire (2024) WEB-DLRip 720p от DoMiNo & селезень | D | Bravo Records Georgia / Movie Dubbing 3.90 GB ↑ 0 ↓ 11

Комментарии


Зарегистрируйтесь чтобы добавить комментарий
Торрент клиент
byTorrent - программа для загрузки торрент-файлов.

Скачать byTorrent.exe (1,5 МБ)

Скачать byTorrent.zip (0,6 МБ)

Поддержи torrent.by
российских рублей
(300 российских рублей это 4$)

Обратная связь rss

End game ©