↑↓torrent.by
Поиск
Логин:  Регистрация
Пароль:

Следопыт / Tracker [01x01-12 из 13] (2024) WEB-DL 1080p от Jaskier | P

download Скачать торрент-файл   magnet Магнитная ссылка Размер: 30.80 GB Добавлен: 2024-05-15 17:00
Пиры будут получены из сети DHT
Последний сидер был замечен 2024-05-16 23:33
Информация о фильме Название: Следопыт Оригинальное название: Tracker Год выхода: 2024 Жанр: драма, криминал Режиссер: Кен Олин В ролях: Джастин Хартли, Ли Тергесен, Николь Энтони, Эрик Грейз, Мэттью Нельсон-Махуд, Оскар Чарк, Эбби Макенани, Линк Бэйкер, Джереми Джонс О фильме: Колтер Шоу путешествует по стране на своём старом фургоне, чтобы помочь полиции и частным лицам раскрывать преступления и находить пропавших без вести людей, но его последнее дело изменит всё. Страна: США Студия: Beekeeper Entertainment, AfterPortsmouth Productions, Change Up Продолжительность: ~00:43:00 Перевод: Профессиональный (многоголосый закадровый) Jaskier Файл Кодек: MKV Качество: WEB-DL 1080p Видео: AVC/H.264, 1920x1080 (16:9), ~9183 kbps Звук: Аудио 1: Русский, AC-3, 48 kHz, 6 ch, 448 kbps | Jaskier Аудио 2: Английский, E-AC-3, 48 kHz, 6 ch, 640 kbps Субтитры: Английские (Full, SDH) Семпл
[+] MediaInfo General Unique ID : 212296916604841902692164373213583514198 (0x9FB6E61CEFB8284BA9322CB6494C1A56) Complete name : E:TorrentTracker.2024.S01.1080p.AMZN.WEB-DL.DDP5.1.H.264-JaskierTracker.2024.S01E01.Klamath.Falls.1080p.AMZN.WEB-DL.DDP5.1.H.264-Jaskier.mkv Format : Matroska Format version : Version 4 File size : 3.19 GiB Duration : 43 min 35 s Overall bit rate : 10.5 Mb/s Encoded date : UTC 2024-02-14 06:46:15 Writing application : mkvmerge v6.6.0 ('The Edge Of The In Between') built on Dec 1 2013 17:55:00 Writing library : libebml v1.3.0 + libmatroska v1.4.1 Video ID : 1 Format : AVC Format/Info : Advanced Video Codec Format profile : High@L4 Format settings : CABAC / 4 Ref Frames Format settings, CABAC : Yes Format settings, Reference frames : 4 frames Codec ID : V_MPEG4/ISO/AVC Duration : 43 min 35 s Bit rate mode : Constant Bit rate : 9 183 kb/s Nominal bit rate : 10 000 kb/s Width : 1 920 pixels Height : 1 080 pixels Display aspect ratio : 16:9 Frame rate mode : Constant Frame rate : 23.976 (24000/1001) FPS Color space : YUV Chroma subsampling : 4:2:0 Bit depth : 8 bits Scan type : Progressive Bits/(Pixel*Frame) : 0.185 Stream size : 2.80 GiB (88%) Default : Yes Forced : No Color range : Limited Color primaries : BT.709 Transfer characteristics : BT.709 Matrix coefficients : BT.709 Statistics Tags Issue : mkvmerge v81.0 ('Milliontown') 64-bit / mkvmerge v6.6.0 ('The Edge Of The In Between') built on Dec 1 2013 17:55:00 2024-02-14 06:46:15 FromStats_BitRate : 9388726 FromStats_Duration : 00:43:35.530000000 FromStats_FrameCount : 62710 FromStats_StreamSize : 3069562009 Audio #1 ID : 2 Format : AC-3 Format/Info : Audio Coding 3 Commercial name : Dolby Digital Codec ID : A_AC3 Duration : 43 min 35 s Bit rate mode : Constant Bit rate : 448 kb/s Channel(s) : 6 channels Channel layout : L R C LFE Ls Rs Sampling rate : 48.0 kHz Frame rate : 31.250 FPS (1536 SPF) Compression mode : Lossy Stream size : 140 MiB (4%) Title : Jaskier Language : Russian Service kind : Complete Main Default : Yes Forced : No Audio #2 ID : 3 Format : E-AC-3 Format/Info : Enhanced AC-3 Commercial name : Dolby Digital Plus Codec ID : A_EAC3 Duration : 43 min 35 s Bit rate mode : Constant Bit rate : 640 kb/s Channel(s) : 6 channels Channel layout : L R C LFE Ls Rs Sampling rate : 48.0 kHz Frame rate : 31.250 FPS (1536 SPF) Compression mode : Lossy Stream size : 200 MiB (6%) Title : Original Language : English Service kind : Complete Main Default : No Forced : No Statistics Tags Issue : mkvmerge v81.0 ('Milliontown') 64-bit / mkvmerge v6.6.0 ('The Edge Of The In Between') built on Dec 1 2013 17:55:00 2024-02-14 06:46:15 FromStats_BitRate : 640000 FromStats_Duration : 00:43:35.488000000 FromStats_FrameCount : 81734 FromStats_StreamSize : 209239040 Text #1 ID : 4 Format : UTF-8 Codec ID : S_TEXT/UTF8 Codec ID/Info : UTF-8 Plain Text Language : English Default : No Forced : No Statistics Tags Issue : mkvmerge v81.0 ('Milliontown') 64-bit / mkvmerge v6.6.0 ('The Edge Of The In Between') built on Dec 1 2013 17:55:00 2024-02-14 06:46:15 FromStats_BitRate : 79 FromStats_Duration : 00:43:00.779000000 FromStats_FrameCount : 893 FromStats_StreamSize : 25790 Text #2 ID : 5 Format : UTF-8 Codec ID : S_TEXT/UTF8 Codec ID/Info : UTF-8 Plain Text Title : SDH Language : English Default : No Forced : No Statistics Tags Issue : mkvmerge v81.0 ('Milliontown') 64-bit / mkvmerge v6.6.0 ('The Edge Of The In Between') built on Dec 1 2013 17:55:00 2024-02-14 06:46:15 FromStats_BitRate : 83 FromStats_Duration : 00:43:00.779000000 FromStats_FrameCount : 939 FromStats_StreamSize : 26993
[+] Скриншоты
Релиз от: Jaskier

Всего файлов в раздаче: 12 
Tracker.2024.S01E01.Klamath.Falls.1080p.AMZN.WEB-DL.DDP5.1.H.264-Jaskier.mkv3.19 GB
Tracker.2024.S01E02.Missoula.1080p.AMZN.WEB-DL.DDP5.1.H.264-Jaskier.mkv2.60 GB
Tracker.2024.S01E03.Springland.1080p.AMZN.WEB-DL.DDP5.1.H.264-Jaskier.mkv2.77 GB
Tracker.2024.S01E04.Mt.Shasta.1080p.AMZN.WEB-DL.DDP5.1.H.264-Jaskier.mkv2.38 GB
Tracker.2024.S01E05.St.Louis.1080p.AMZN.WEB-DL.DDP5.1.H.264-Jaskier.mkv2.41 GB
Tracker.2024.S01E06.Lexington1080p.AMZN.WEB-DL.DDP5.1.H.264-Jaskier.mkv2.52 GB
Tracker.2024.S01E07.Chicago.1080p.AMZN.WEB-DL.DDP5.1.H.264-Jaskier.mkv2.56 GB
Tracker.2024.S01E08.Camden.1080p.AMZN.WEB-DL.DDP5.1.H.264-Jaskier.mkv2.72 GB
Tracker.2024.S01E09.Aurora.1080p.AMZN.WEB-DL.DDP5.1.H.264-Jaskier.mkv2.24 GB
Tracker.2024.S01E10.Into.the.Wild.1080p.AMZN.WEB-DL.DDP5.1.H.264-Jaskier.mkv2.69 GB
Показать все файлы

Похожие раздачи по запросу - Следопыт
Сегодня magnet Следопыт / Tracker [S01] (2024) WEB-DL 1080p от Jaskier | P 33.26 GB ↑ 0 ↓ 5
Вчера magnet Следопыт / Tracker [S01] (2024) WEBRip 1080p от Kerob | L2 19.64 GB ↑ 0 ↓ 2
Вчера magnet Следопыт / Tracker [S01] (2024) WEBRip от Kerob | L2 5.79 GB ↑ 0 ↓ 0

Кто качает (только для создателя раздачи и модераторов): Локальные пиры отсутствуют

Комментарии


Зарегистрируйтесь чтобы добавить комментарий
Торрент клиент
byTorrent - программа для загрузки торрент-файлов.

Скачать byTorrent.exe (1,5 МБ)

Скачать byTorrent.zip (0,6 МБ)

Поддержи torrent.by
российских рублей
(300 российских рублей это 4$)

Обратная связь rss

End game ©