↑↓torrent.by
Поиск
Логин:  Регистрация
Пароль:

Смертельное оружие 3 / Lethal weapon 3 (1992) BDRip-AVC от New-Team | D

download Скачать торрент-файл   magnet Магнитная ссылка Размер: 1.46 GB Добавлен: 2024-05-15 17:00
Пиры будут получены из сети DHT
Последний сидер был замечен 2024-06-20 15:56
Страна: США Производство: Silver Pictures, Warner Bros. Pictures Co. Жанр: боевик, триллер, криминал Год выпуска: 1992 Продолжительность: 01:57:53 Перевод: Профессиональный (полное дублирование) Blu-Ray CEE Оригинальная аудиодорожка: английский Cубтитры: русский В ролях: Мэл Гибсон, Дэнни Гловер, Джо Пеши, Рене Руссо, Стюарт Уилсон, Стив Кэхэн, Дарлин Лав, Трэйси Вульф, Дэймон Хайнс, Эбони Смит... Подробнее об актерах Роли дублировали: Владимир Еремин, Дмитрий Матвеев, Валерий Кравченко, Рудольф Панков, Гелий Сысоев... Описание: Третий фильм о неустрашимом полицейском Риггсе. На этот раз Мартин и его напарник Роджер сталкиваются с гангстерами, похищающими оружие со склада полиции. Преступную группу, за которой тянется длинный кровавый след, возглавляет бывший сержант Джек Тревис. Найти улики против «грязного» полицейского напарникам помогает Лорна Коул — решительная женщина-полицейский, которая не останавливается перед лицом опасности и уверенно вступает в схватку с противниками… Исходник: BDRemux 1080p Тип релиза: BDRip-AVC Контейнер: MKV Видео: 1024x424 (2,40:1), 23,976 кадра/сек, x264 core 164 r3182 ~ 1385 кбит/сек, 0.133 бит/пиксель Аудио: 48 кГц, Dolby Digital AC3 2.0, 192 кбит/сек DUB Аудио: 48 кГц, Dolby Digital AC3 2.0, 192 кбит/сек английский Субтитры: SoftSub (srt) Оригинальная навигация по главам: есть Раздача от:
[+] MediaInfo Общее Полное имя : Смертельное оружие 3.1992.BDRip-AVC__by_AVP_Studio.mkv Формат : Matroska Версия формата : Version 4 Размер файла : 1,46 Гбайт Продолжительность : 1 ч. 57 мин. Общий битрейт : 1 771 Кбит/сек Частота кадров : 23,976 кадра/сек Дата кодирования : 2024-05-15 06:37:18 UTC Программа кодирования : mkvmerge v83.0 ('Circle Of Friends') 64-bit Библиотека кодирования : libebml v1.4.5 + libmatroska v1.7.1 Видео Идентификатор : 1 Формат : AVC Формат/Информация : Advanced Video Codec Профиль формата : High@L4.1 Настройки формата : CABAC / 10 Ref Frames Параметр CABAC формата : Да Параметр RefFrames формата : 10 кадров Идентификатор кодека : V_MPEG4/ISO/AVC Продолжительность : 1 ч. 57 мин. Битрейт : 1 385 Кбит/сек Ширина : 1 024 пикселя Высота : 424 пикселя Соотношение сторон дисплея : 2,40:1 Режим частоты кадров : Постоянный Частота кадров : 23,976 (24000/1001) кадра/сек Цветовое пространство : YUV Цветовая субдискретизация : 4:2:0 Битовая глубина : 8 бит Тип развёртки : Прогрессивная Бит/(Пиксели*Кадры) : 0.133 Размер потока : 1,14 Гбайт (78%) Заголовок : Исходник BDRemux 1080p Библиотека кодирования : x264 core 164 r3182 be4f020 Параметры библиотеки кодирования : cabac=1 / ref=10 / deblock=1:-3:-2 / analyse=0x3:0x113 / me=umh / subme=10 / psy=1 / psy_rd=1.00:0.00 / mixed_ref=1 / me_range=32 / chroma_me=1 / trellis=2 / 8x8dct=1 / cqm=0 / deadzone=21,11 / fast_pskip=1 / chroma_qp_offset=-2 / threads=6 / lookahead_threads=1 / sliced_threads=0 / nr=0 / decimate=0 / interlaced=0 / bluray_compat=0 / constrained_intra=0 / bframes=8 / b_pyramid=2 / b_adapt=2 / b_bias=0 / direct=3 / weightb=1 / open_gop=0 / weightp=2 / keyint=240 / keyint_min=24 / scenecut=40 / intra_refresh=0 / rc_lookahead=40 / rc=2pass / mbtree=1 / bitrate=1385 / ratetol=1.0 / qcomp=0.60 / qpmin=0 / qpmax=69 / qpstep=4 / cplxblur=20.0 / qblur=0.5 / ip_ratio=1.40 / aq=1:1.00 Язык : Русский По умолчанию : Да Принудительно : Нет Аудио #1 Идентификатор : 2 Формат : AC-3 Формат/Информация : Audio Coding 3 Коммерческое название : Dolby Digital Идентификатор кодека : A_AC3 Продолжительность : 1 ч. 57 мин. Вид битрейта : Постоянный Битрейт : 192 Кбит/сек Канал(-ы) : 2 канала Расположение каналов : L R Частота дискретизации : 48,0 КГц Частота кадров : 31,250 кадров/сек (1536 SPF) Метод сжатия : С потерями Размер потока : 162 Мбайт (11%) Заголовок : Профессиональный (дублированный) Blu-Ray CEE Язык : Русский По умолчанию : Да Принудительно : Нет Аудио #2 Идентификатор : 3 Формат : AC-3 Формат/Информация : Audio Coding 3 Коммерческое название : Dolby Digital Идентификатор кодека : A_AC3 Продолжительность : 1 ч. 57 мин. Вид битрейта : Постоянный Битрейт : 192 Кбит/сек Канал(-ы) : 2 канала Расположение каналов : L R Частота дискретизации : 48,0 КГц Частота кадров : 31,250 кадров/сек (1536 SPF) Метод сжатия : С потерями Размер потока : 162 Мбайт (11%) Заголовок : Оригинал Язык : Английский По умолчанию : Да Принудительно : Нет Текст Идентификатор : 4 Формат : UTF-8 Идентификатор кодека : S_TEXT/UTF8 Идентификатор кодека/Информация : UTF-8 Plain Text Продолжительность : 1 ч. 56 мин. Битрейт : 116 бит/сек Частота кадров : 0,251 кадр/сек Число элементов : 1753 Размер потока : 99,5 КиБ (0%) Заголовок : SRT Язык : Русский По умолчанию : Нет Принудительно : Нет Меню 00:00:00.000 : Chapter 01 00:01:39.182 : Chapter 02 00:07:48.676 : Chapter 03 00:10:05.062 : Chapter 04 00:15:11.744 : Chapter 05 00:20:08.832 : Chapter 06 00:22:06.450 : Chapter 07 00:24:36.975 : Chapter 08 00:29:16.421 : Chapter 09 00:37:00.593 : Chapter 10 00:43:34.028 : Chapter 11 00:49:31.551 : Chapter 12 00:53:44.262 : Chapter 13 00:56:17.791 : Chapter 14 00:58:06.483 : Chapter 15 01:00:42.347 : Chapter 16 01:05:49.111 : Chapter 17 01:11:41.422 : Chapter 18 01:14:59.745 : Chapter 19 01:18:15.982 : Chapter 20 01:22:29.361 : Chapter 21 01:24:37.197 : Chapter 22 01:27:21.945 : Chapter 23 01:29:59.268 : Chapter 24 01:34:44.178 : Chapter 25 01:37:15.329 : Chapter 26 01:42:34.606 : Chapter 27 01:46:24.628 : Chapter 28 01:48:26.458 : Chapter 29 01:51:44.030 : Chapter 30 01:57:05.018 : Chapter 31
[+] Скриншоты

Всего файлов в раздаче: 1 
Смертельное оружие 3.1992.BDRip-AVC_[New-team]_by_AVP_Studio.mkv1.46 GB

Похожие раздачи по запросу - Смертельное
2024-06-20 magnet Смертельное оружие 4 / Lethal Weapon 4 (1998) BDRip-AVC от New-Team | D 1.77 GB ↑ 1 ↓ 0
2024-05-14 magnet Смертельное оружие 2 / Lethal weapon 2 (1989) BDRip-AVC от New-Team | D 1.46 GB ↑ 0 ↓ 0

Кто качает (только для создателя раздачи и модераторов): Локальные пиры отсутствуют

Комментарии


Зарегистрируйтесь чтобы добавить комментарий
Торрент клиент
byTorrent - программа для загрузки торрент-файлов.

Скачать byTorrent.exe (1,5 МБ)

Скачать byTorrent.zip (0,6 МБ)

Поддержи torrent.by
российских рублей
(300 российских рублей это 4$)

Обратная связь rss

End game ©