↑↓torrent.by
Поиск
Логин:  Регистрация
Пароль:

Меню / The Menu (2022) BDRip-AVC от DoMiNo & селезень | P, A

download Скачать торрент-файл   magnet Магнитная ссылка Размер: 2.39 GB Добавлен: 2024-05-15 17:00
Пиры будут получены из сети DHT
Последний сидер был замечен 2024-06-04 04:24
Информация о фильме Название: Меню Оригинальное название: The Menu Год выпуска: 2022 Жанр: Триллер, комедия, сатира, чёрная комедия Выпущено: США, Alienworx Productions, Hyperobject Industries Режиссер: Марк Майлод В ролях: Рэйф Файнс, Аня Тейлор-Джой, Николас Холт, Хонг Чау, Джанет МакТир, Пол Адельштейн, Джон Легуизамо, Эйми Карреро, Рид Бирни, Джудит Лайт Описание: Молодая пара в компании других богатеев отправляется на эксклюзивный ужин в знаменитый ресторан, который находится на небольшом острове. Одно изысканное блюдо сменяет другое, когда выясняется, что шеф-повар и его команда неплохо изучили сегодняшних гостей и прекрасно осведомлены не только об их вкусовых предпочтениях. И кроме того, меню содержит неприятные сюрпризы. Продолжительность: 01:47:08 Перевод 1: Профессиональный (многоголосый закадровый) | HDRezka Studio Перевод 2: Профессиональный (многоголосый закадровый) | TVShows Перевод 3: Авторский (одноголосый, закадровый) | Дмитрий Есарев | Ненормативная лексика! Субтитры: Русские (форсированные (HDRezka), полные (FOCS)), украинские (форсированные, полные), английские (полные, SDH) Файл Формат: Matroska Качество: BDRip-AVC Видео: 1024x436 at 23.976 fps, x264@L4.1, ~1655 kbps Аудио 1: AC3, 6 ch, ~448 kbps - | Русский | | HDRezka Studio Аудио 2: AC3, 2 ch, ~192 kbps - | Русский | | TVShows Аудио 3: AC3, 6 ch, ~448 kbps - | Русский | | Дмитрий Есарев Аудио 4: AC3, 6 ch, ~448 kbps - | Английский | | Original Формат субтитров: softsub (SRT) ***Рип от: -=DoMiNo=-
[+] M/Ix264 : frame I:1408 Avg QP:13.58 size: 59354 x264 : frame P:30981 Avg QP:15.35 size: 18666 x264 : frame B:121739 Avg QP:18.18 size: 5485 x264 : consecutive B-frames: 2.0% 2.1% 6.3% 15.8% 19.5% 34.6% 7.7% 2.7% 2.5% 1.5% 1.1% 1.7% 1.3% 0.7% 0.5% General Unique ID : 297503819334562902861916546235958472637 (0xDFD126C3A1AD052CBAD8BB1D539AAFBD) Complete name : D:The.Menu.2022.BDRip.x264.seleZen.mkv Format : Matroska Format version : Version 4 File size : 2.39 GiB Duration : 1 h 47 min Overall bit rate : 3 194 kb/s Movie name : The.Menu.2022.BDRip.x264.seleZen Encoded date : UTC 2023-01-16 17:21:36 Writing application : mkvmerge v73.0.0 ('25 or 6 to 4') 64-bit Writing library : libebml v1.4.4 + libmatroska v1.7.1 Cover : Yes Attachments : cover.jpg / small_cover.jpg Video ID : 1 Format : AVC Format/Info : Advanced Video Codec Format profile : High@L4.1 Format settings : CABAC / 11 Ref Frames Format settings, CABAC : Yes Format settings, Reference : 11 frames Codec ID : V_MPEG4/ISO/AVC Duration : 1 h 47 min Bit rate : 1 655 kb/s Width : 1 024 pixels Height : 436 pixels Display aspect ratio : 2.35:1 Frame rate mode : Constant Frame rate : 23.976 (24000/1001) FPS Color space : YUV Chroma subsampling : 4:2:0 Bit depth : 8 bits Scan type : Progressive Bits/(Pixel*Frame) : 0.155 Stream size : 1.24 GiB (52%) Title : -=DoMiNo=- Writing library : x264 core 164 by -=DoMiNo=- Encoding settings : cabac=1 / ref=11 / deblock=1:-3:-3 / analyse=0x3:0x133 / me=umh / subme=11 / psy=1 / psy_rd=1.03:0.05 / mixed_ref=1 / me_range=48 / chroma_me=1 / trellis=2 / 8x8dct=1 / cqm=0 / deadzone=21,11 / fast_pskip=0 / chroma_qp_offset=-3 / threads=17 / lookahead_threads=3 / sliced_threads=0 / nr=0 / decimate=1 / interlaced=0 / bluray_compat=0 / constrained_intra=0 / bframes=14 / b_pyramid=2 / b_adapt=2 / b_bias=0 / direct=1 / weightb=1 / open_gop=0 / weightp=2 / keyint=240 / keyint_min=23 / scenecut=40 / intra_refresh=0 / rc=crf / mbtree=0 / crf=16.8 / qcomp=0.65 / qpmin=0 / qpmax=69 / qpstep=4 / ip_ratio=1.35 / pb_ratio=1.25 / aq=3:0.80 Language : English Default : Yes Forced : No Color range : Limited Matrix coefficients : BT.709 Audio #1 ID : 2 Format : AC-3 Format/Info : Audio Coding 3 Commercial name : Dolby Digital Codec ID : A_AC3 Duration : 1 h 47 min Bit rate mode : Constant Bit rate : 448 kb/s Channel(s) : 6 channels Channel layout : L R C LFE Ls Rs Sampling rate : 48.0 kHz Frame rate : 31.250 FPS (1536 SPF) Compression mode : Lossy Stream size : 343 MiB (14%) Title : MVO_ Language : Russian Service kind : Complete Main Default : Yes Forced : Yes Audio #2 ID : 3 Format : AC-3 Format/Info : Audio Coding 3 Commercial name : Dolby Digital Codec ID : A_AC3 Duration : 1 h 47 min Bit rate mode : Constant Bit rate : 192 kb/s Channel(s) : 2 channels Channel layout : L R Sampling rate : 48.0 kHz Frame rate : 31.250 FPS (1536 SPF) Compression mode : Lossy Stream size : 147 MiB (6%) Title : MVO_ Language : Russian Service kind : Complete Main Default : No Forced : No Audio #3 ID : 4 Format : AC-3 Format/Info : Audio Coding 3 Commercial name : Dolby Digital Codec ID : A_AC3 Duration : 1 h 47 min Bit rate mode : Constant Bit rate : 448 kb/s Channel(s) : 6 channels Channel layout : L R C LFE Ls Rs Sampling rate : 48.0 kHz Frame rate : 31.250 FPS (1536 SPF) Compression mode : Lossy Stream size : 343 MiB (14%) Title : AVO_ Language : Russian Service kind : Complete Main Default : No Forced : No Audio #4 ID : 5 Format : AC-3 Format/Info : Audio Coding 3 Commercial name : Dolby Digital Codec ID : A_AC3 Duration : 1 h 47 min Bit rate mode : Constant Bit rate : 448 kb/s Channel(s) : 6 channels Channel layout : L R C LFE Ls Rs Sampling rate : 48.0 kHz Frame rate : 31.250 FPS (1536 SPF) Compression mode : Lossy Stream size : 343 MiB (14%) Title : Original Language : English Service kind : Complete Main Default : No Forced : No Text #1 ID : 6 Format : UTF-8 Codec ID : S_TEXT/UTF8 Codec ID/Info : UTF-8 Plain Text Duration : 1 h 38 min Bit rate : 4 b/s Frame rate : 0.006 FPS Count of elements : 35 Stream size : 3.10 KiB (0%) Title : Forced Language : Russian Default : Yes Forced : Yes Text #2 ID : 7 Format : UTF-8 Codec ID : S_TEXT/UTF8 Codec ID/Info : UTF-8 Plain Text Duration : 1 h 39 min Bit rate : 121 b/s Frame rate : 0.290 FPS Count of elements : 1731 Stream size : 88.2 KiB (0%) Title : Full Language : Russian Default : No Forced : No Text #3 ID : 8 Format : UTF-8 Codec ID : S_TEXT/UTF8 Codec ID/Info : UTF-8 Plain Text Duration : 1 h 38 min Bit rate : 2 b/s Frame rate : 0.005 FPS Count of elements : 31 Stream size : 1.51 KiB (0%) Title : Forced Language : Ukrainian Default : No Forced : No Text #4 ID : 9 Format : UTF-8 Codec ID : S_TEXT/UTF8 Codec ID/Info : UTF-8 Plain Text Duration : 1 h 46 min Bit rate : 105 b/s Frame rate : 0.277 FPS Count of elements : 1766 Stream size : 82.0 KiB (0%) Title : Full Language : Ukrainian Default : No Forced : No Text #5 ID : 10 Format : UTF-8 Codec ID : S_TEXT/UTF8 Codec ID/Info : UTF-8 Plain Text Duration : 1 h 37 min Bit rate : 71 b/s Frame rate : 0.295 FPS Count of elements : 1733 Stream size : 51.4 KiB (0%) Title : Full Language : English Default : No Forced : No Text #6 ID : 11 Format : UTF-8 Codec ID : S_TEXT/UTF8 Codec ID/Info : UTF-8 Plain Text Duration : 1 h 40 min Bit rate : 79 b/s Frame rate : 0.315 FPS Count of elements : 1895 Stream size : 58.6 KiB (0%) Title : SDH Language : English Default : No Forced : No Menu 00:00:00.000 : Chapter 01 00:06:12.122 : Chapter 02 00:09:27.358 : Chapter 03 00:12:08.895 : Chapter 04 00:14:56.896 : Chapter 05 00:21:30.331 : Chapter 06 00:28:07.895 : Chapter 07 00:35:38.261 : Chapter 08 00:38:15.877 : Chapter 09 00:42:38.723 : Chapter 10 00:48:13.599 : Chapter 11 00:55:00.297 : Chapter 12 01:01:24.431 : Chapter 13 01:04:47.884 : Chapter 14 01:08:24.767 : Chapter 15 01:11:16.647 : Chapter 16 01:14:04.398 : Chapter 17 01:16:06.061 : Chapter 18 01:20:53.057 : Chapter 19 01:23:27.169 : Chapter 20 01:28:05.614 : Chapter 21 01:33:37.737 : Chapter 22 01:39:37.388 : Chapter 23 01:40:14.967 : Chapter 24
Релиз: Присоединяйся к: Кликай на баннеры.

Всего файлов в раздаче: 1 
The.Menu.2022.BDRip.x264.seleZen.mkv2.39 GB

Похожие раздачи по запросу - Меню
2024-05-15 magnet Меню / The Menu (2022) HDRip-AVC | P | HDrezka Studio 745.73 MB ↑ 0 ↓ 0
2024-05-07 magnet Меню / The Menu (2022) BDRip 720p от DoMiNo & селезень | D, P, A 3.55 GB ↑ 0 ↓ 0
2023-06-25 magnet Александра Ситнова - Меню для всей семьи. Просто и полезно (2023) PDF 2.92 MB ↑ 0 ↓ 0

Кто качает (только для создателя раздачи и модераторов): Локальные пиры отсутствуют

Комментарии


Зарегистрируйтесь чтобы добавить комментарий
Торрент клиент
byTorrent - программа для загрузки торрент-файлов.

Скачать byTorrent.exe (1,5 МБ)

Скачать byTorrent.zip (0,6 МБ)

Поддержи torrent.by
российских рублей
(300 российских рублей это 4$)

Обратная связь rss

End game ©