↑↓torrent.by
Поиск
Логин:  Регистрация
Пароль:

Мосгаз. Дело №10: Метроном [S10] (2024) WEBRip 1080p от ExKinoRay

download Скачать торрент-файл   magnet Магнитная ссылка Размер: 15.85 GB Добавлен: 2024-05-15 17:00
Пиры будут получены из сети DHT
Последний сидер был замечен 2024-05-18 14:46
Информация о фильме Название: Мосгаз. Дело №10: Метроном Год выхода: 2024 Жанр: Детектив, криминал Режиссер: Евгений Звездаков В ролях: Марина Александрова, Алексей Бардуков, Александр Голубев, Андрей Мерзликин, Игорь Золотовицкий, Сергей Шакуров, Фёдор Лавров, Артур Ваха, Эдуард Чекмазов, Андрей Смоляков О фильме: 1982 год. Соня Тимофеева, Алексей Гаркуша и Егор Осадчий теперь сами по себе, а амбициозный майор Виктор Ковалев пытается занять пустующее место руководителя оперативной группы. Тем временем в Москве прямо во время выступления погибает известный эстрадный артист и сотрудник Москонцерта Андрей Гринякин. Все указывает на то, что кто-то пытается «замять» это дело. Соня Тимофеева в тайне от всех начинает вести свое расследование. Понять, что происходит в Москонцерте, пытается и Ковалев. Очевидно, что подпольную деятельность Москонцерта покрывают влиятельные люди. События разворачиваются стремительно: один за другим погибают участники преступной схемы директора Москонцерта Ольшевского. Страна: Россия Студия: Okko Studios, Студия Русский проект Язык: Русский Файл Формат: MKV Качество: WEBRip 1080p Видео: MPEG-4 AVC, ~ 5000 Кбит/с, 1920x1080, 25 кадр/с Аудио: Русский, AC3, 2 ch, 256 Кбит/с, E-AC3, 2 ch, 256 Кбит/с RUS Субтитры: Русские (Полные (Enigma)) Продолжительность: 8 x ~ 00:50:00 Реклама: Отсутствует
[+] МИ General Unique ID : 275394691222927327542155144216814792058 (0xCF2F16969430F0E4829E671D8F4BAD7A) Complete name : G:Mosgaz.Metronom.S10.2024.WEB-DL.1080p.ExKinoRayMosgaz.Metronom.S10.E01.2024.WEB-DL.1080p.ExKinoRay.mkv Format : Matroska Format version : Version 4 File size : 1.94 GiB Duration : 50 min 34 s Overall bit rate : 5 484 kb/s Encoded date : UTC 2024-04-30 13:33:10 Writing application : mkvmerge v56.1.0 ('My Friend') 64-bit Writing library : libebml v1.4.2 + libmatroska v1.6.4 Video ID : 1 Format : AVC Format/Info : Advanced Video Codec Format profile : High@L4 Format settings : CABAC / 3 Ref Frames Format settings, CABAC : Yes Format settings, Reference frames : 3 frames Codec ID : V_MPEG4/ISO/AVC Duration : 50 min 34 s Bit rate : 5 000 kb/s Width : 1 920 pixels Height : 1 080 pixels Display aspect ratio : 16:9 Frame rate mode : Constant Frame rate : 25.000 FPS Color space : YUV Chroma subsampling : 4:2:0 Bit depth : 8 bits Scan type : Progressive Bits/(Pixel*Frame) : 0.096 Stream size : 1.76 GiB (91%) Writing library : x264 core 164 r3095 baee400 Encoding settings : cabac=1 / ref=4 / deblock=1:-1:-1 / analyse=0x3:0x133 / me=umh / subme=9 / psy=1 / psy_rd=0.40:1.00 / mixed_ref=1 / me_range=24 / chroma_me=1 / trellis=0 / 8x8dct=1 / cqm=0 / deadzone=21,11 / fast_pskip=1 / chroma_qp_offset=-2 / threads=3 / lookahead_threads=1 / sliced_threads=0 / nr=0 / decimate=1 / interlaced=0 / bluray_compat=0 / stitchable=1 / constrained_intra=0 / bframes=8 / b_pyramid=1 / b_adapt=0 / b_bias=0 / direct=3 / weightb=1 / open_gop=0 / weightp=2 / keyint=75 / keyint_min=38 / scenecut=0 / intra_refresh=0 / rc_lookahead=40 / rc=2pass / mbtree=1 / bitrate=5000 / ratetol=1.0 / qcomp=0.80 / qpmin=1 / qpmax=69 / qpstep=4 / cplxblur=20.0 / qblur=0.5 / vbv_maxrate=7500 / vbv_bufsize=10000 / nal_hrd=none / filler=0 / ip_ratio=1.40 / aq=1:1.00 Language : Russian Default : Yes Forced : No Color range : Limited Color primaries : BT.709 Transfer characteristics : BT.709 Matrix coefficients : BT.709 Audio #1 ID : 2 Format : AC-3 Format/Info : Audio Coding 3 Commercial name : Dolby Digital Codec ID : A_AC3 Duration : 50 min 34 s Bit rate mode : Constant Bit rate : 256 kb/s Channel(s) : 2 channels Channel layout : L R Sampling rate : 48.0 kHz Frame rate : 31.250 FPS (1536 SPF) Compression mode : Lossy Stream size : 92.6 MiB (5%) Language : Russian Service kind : Complete Main Default : Yes Forced : No Audio #2 ID : 3 Format : E-AC-3 Format/Info : Enhanced AC-3 Commercial name : Dolby Digital Plus Codec ID : A_EAC3 Duration : 50 min 34 s Bit rate mode : Constant Bit rate : 256 kb/s Channel(s) : 2 channels Channel layout : L R Sampling rate : 48.0 kHz Frame rate : 31.250 FPS (1536 SPF) Compression mode : Lossy Stream size : 92.6 MiB (5%) Language : Russian Service kind : Complete Main Default : No Forced : No
[+] Скриншоты
Релиз от:

Всего файлов в раздаче: 8 
Mosgaz.Metronom.S10.E01.2024.WEB-DL.1080p.ExKinoRay.mkv1.94 GB
Mosgaz.Metronom.S10.E02.2024.WEB-DL.1080p.ExKinoRay.mkv1.93 GB
Mosgaz.Metronom.S10.E03.2024.WEB-DL.1080p.ExKinoRay.mkv1.99 GB
Mosgaz.Metronom.S10.E04.2024.WEB-DL.1080p.ExKinoRay.mkv1.92 GB
Mosgaz.Metronom.S10.E05.2024.WEB-DL.1080p.ExKinoRay.mkv1.92 GB
Mosgaz.Metronom.S10.E06.2024.WEB-DL.1080p.ExKinoRay.mkv1.90 GB
Mosgaz.Metronom.S10.E07.2024.WEB-DL.1080p.ExKinoRay.mkv2.37 GB
Mosgaz.Metronom.S10.E08.2024.WEB-DL.1080p.ExKinoRay.mkv1.88 GB

Похожие раздачи по запросу - Мосгаз
Вчера magnet Мосгаз Дело №10 Метроном [S10] (2024) WEBRip от New-Team 3.65 GB ↑ 0 ↓ 0
Вчера magnet Мосгаз Дело №10 Метроном [S10] (2024) WEBRip-AVC от New-Team 6.54 GB ↑ 0 ↓ 0
2024-05-19 magnet Мосгаз Дело №9 Последнее дело Черкасова [S09] (2023) WEBRip-AVC от New-Team 6.53 GB ↑ 0 ↓ 0
2024-05-19 magnet Мосгаз Дело №9 Последнее дело Черкасова [S09] (2023) WEBRip от New-Team 3.65 GB ↑ 0 ↓ 0
2024-05-16 magnet Мосгаз. Дело №10: Метроном [S10] (2024) WEBRip от Files-x 5.00 GB ↑ 0 ↓ 0
2024-05-15 magnet Мосгаз. Дело №10: Метроном [S10] (2024) WEBRip 720p от ExKinoRay 9.64 GB ↑ 1 ↓ 0
2024-05-15 magnet Мосгаз. Дело №10: Метроном [S10] (2024) WEBRip-AVC от Files-x 5.03 GB ↑ 0 ↓ 0

Кто качает (только для создателя раздачи и модераторов): Локальные пиры отсутствуют

Комментарии


Зарегистрируйтесь чтобы добавить комментарий
Торрент клиент
byTorrent - программа для загрузки торрент-файлов.

Скачать byTorrent.exe (1,5 МБ)

Скачать byTorrent.zip (0,6 МБ)

Поддержи torrent.by
российских рублей
(300 российских рублей это 4$)

Обратная связь rss

End game ©