↑↓torrent.by
Поиск
Логин:  Регистрация
Пароль:

Воровка (2023) WEB-DLRip-AVC от DoMiNo & селезень

download Скачать торрент-файл   magnet Магнитная ссылка Размер: 1.15 GB Раздают: 1 Качают: 2 Добавлен: 2024-05-15 17:00
Пиры будут получены из сети DHT
Последний сидер был замечен сегодня в 10:05
Информация о фильме Название: Воровка Год выхода: 2023 Жанр: Триллер, боевик Режиссер: Алексей Алфёров В ролях: Лукерья Ильяшенко, Вячеслав Разбегаев, Игорь Жижикин, Александр Воробьёв (II), Сергей Комаров (II), Илья Коробко, Петар Зекавица, Алексей Ушаков, Мирослава Карпович, Максим Щёголев, Сергей Астахов, Арман Берикян, Андрей Давыдов, Василий Шемякинский О фильме: Вера - девушка с трагической судьбой, росла без родителей, бежала из приемных семей и, в конце концов, связалась с криминалом. Она стала воровкой экстра-класса и в тандеме с хакером, которого она никогда не видела, проворачивает сложные и опасные дела, зарабатывая большие деньги. Всю жизнь Вера безуспешно ищет своего отца, который пропал в нулевых. Уже отчаявшись найти хоть какие-то зацепки, Вера на одном из очередных ограблений натыкается на след своего папы и выясняет жуткие подробности его биографии. Увлеченная расследованием, она не подозревает, что в это время на неё саму началась охота. Страна: Россия Студия: Берг Саунд Продолжительность: 01:28:18 Язык: Русский Субтитры: Русские (Full) Файл Формат: Matroska Качество: WEB-DLRip-AVC Видео: 1024x428 at 25.000 fps, x264@L4.1, ~1601 kbps Аудио: AC3, 2 ch, ~256 kbps - | Русский | Формат субтитров: softsub (SRT) ***Рип от: -=DoMiNo=-
[+] M/IGeneral Unique ID : 102328099783489471154318026770562593524 (0x4CFBACD6CBC628CAA77A2DC1DBFAB2F4) Complete name : I:Воровка.2023.WEB-DLRip.x264.seleZen.mkv Format : Matroska Format version : Version 4 File size : 1.15 GiB Duration : 1 h 28 min Overall bit rate : 1 859 kb/s Frame rate : 25.000 FPS Movie name : Воровка.2023.WEB-DLRip.x264.seleZen Encoded date : 2024-05-15 09:34:28 UTC Writing application : mkvmerge v84.0 ('Sleeper') 64-bit Writing library : libebml v1.4.5 + libmatroska v1.7.1 Cover : Yes Attachments : cover.jpg / small_cover.jpg Video ID : 1 Format : AVC Format/Info : Advanced Video Codec Format profile : High@L4.1 Format settings : CABAC / 10 Ref Frames Format settings, CABAC : Yes Format settings, Reference : 10 frames Codec ID : V_MPEG4/ISO/AVC Duration : 1 h 28 min Bit rate : 1 601 kb/s Width : 1 024 pixels Height : 428 pixels Display aspect ratio : 2.39:1 Frame rate mode : Constant Frame rate : 25.000 FPS Color space : YUV Chroma subsampling : 4:2:0 Bit depth : 8 bits Scan type : Progressive Bits/(Pixel*Frame) : 0.146 Stream size : 1 012 MiB (86%) Title : -=DoMiNo=- Writing library : x264 core 164 r3190 -DoMiNo Encoding settings : cabac=1 / ref=10 / deblock=1:-2:-1 / analyse=0x3:0x133 / me=umh / subme=10 / psy=1 / psy_rd=1.01:0.04 / mixed_ref=1 / me_range=32 / chroma_me=1 / trellis=2 / 8x8dct=1 / cqm=0 / deadzone=21,11 / fast_pskip=0 / chroma_qp_offset=-3 / threads=13 / lookahead_threads=3 / sliced_threads=0 / nr=0 / decimate=1 / interlaced=0 / bluray_compat=0 / constrained_intra=0 / bframes=10 / b_pyramid=2 / b_adapt=2 / b_bias=0 / direct=3 / weightb=1 / open_gop=0 / weightp=2 / keyint=250 / keyint_min=25 / scenecut=40 / intra_refresh=0 / rc_lookahead=60 / rc=crf / mbtree=0 / crf=18.0 / qcomp=0.60 / qpmin=0 / qpmax=69 / qpstep=4 / vbv_maxrate=50000 / vbv_bufsize=62500 / crf_max=0.0 / nal_hrd=none / filler=0 / ip_ratio=1.40 / pb_ratio=1.30 / aq=3:0.90 Language : Russian Default : Yes Forced : No Color range : Limited Color primaries : BT.709 Transfer characteristics : BT.709 Matrix coefficients : BT.709 Audio ID : 2 Format : AC-3 Format/Info : Audio Coding 3 Commercial name : Dolby Digital Codec ID : A_AC3 Duration : 1 h 28 min Bit rate mode : Constant Bit rate : 256 kb/s Channel(s) : 2 channels Channel layout : L R Sampling rate : 48.0 kHz Frame rate : 31.250 FPS (1536 SPF) Compression mode : Lossy Stream size : 162 MiB (14%) Language : Russian Service kind : Complete Main Default : Yes Forced : No Dialog Normalization : -31 dB dialnorm_Average : -31 dB dialnorm_Minimum : -31 dB dialnorm_Maximum : -31 dB Text ID : 3 Format : UTF-8 Codec ID : S_TEXT/UTF8 Codec ID/Info : UTF-8 Plain Text Duration : 1 h 25 min Bit rate : 63 b/s Frame rate : 0.193 FPS Count of elements : 995 Stream size : 40.1 KiB (0%) Language : Russian Default : No Forced : No Menu 00:00:00.000 : en:Chapter 01 00:05:50.000 : en:Chapter 02 00:11:40.000 : en:Chapter 03 00:17:30.000 : en:Chapter 04 00:23:20.000 : en:Chapter 05 00:29:10.000 : en:Chapter 06 00:35:00.000 : en:Chapter 07 00:40:50.000 : en:Chapter 08 00:46:40.000 : en:Chapter 09 00:52:30.000 : en:Chapter 10 00:58:20.000 : en:Chapter 11 01:04:10.000 : en:Chapter 12 01:10:00.000 : en:Chapter 13 01:15:50.000 : en:Chapter 14 01:21:40.000 : en:Chapter 15 01:27:30.000 : en:Chapter 16
Релиз: Присоединяйся к: Кликай на баннеры.

Всего файлов в раздаче: 1 
Воровка.2023.WEB-DLRip.x264.seleZen.mkv1.15 GB

Похожие раздачи по запросу - Воровка
2024-05-15 magnet Воровка (2023) WEB-DL 1080p от ExKinoRay 3.32 GB ↑ 0 ↓ 8
2024-01-05 magnet Воровка (2023) WEBRip от ExKinoRay 745.81 MB ↑ 0 ↓ 0
2024-01-05 magnet Воровка (2023) WEBRip-AVC от Files-х 1.36 GB ↑ 0 ↓ 0
2024-01-04 magnet Воровка (2023) WEBRip 1080p 1К2.89 GB ↑ 0 ↓ 0

Комментарии


Зарегистрируйтесь чтобы добавить комментарий
Торрент клиент
byTorrent - программа для загрузки торрент-файлов.

Скачать byTorrent.exe (1,5 МБ)

Скачать byTorrent.zip (0,6 МБ)

Поддержи torrent.by
российских рублей
(300 российских рублей это 4$)

Обратная связь rss

End game ©