↑↓torrent.by
Поиск
Логин:  Регистрация
Пароль:

Они / Them [S02] (2024) WEB-DL 720p | HDrezka Studio

download Скачать торрент-файл   magnet Магнитная ссылка Размер: 7.14 GB Добавлен: 2024-05-16 05:00
Пиры будут получены из сети DHT
Последний сидер был замечен сегодня в 20:11
Информация о фильме Название: Они Оригинальное название: Them Год выхода: 2024 Жанр: Ужасы, триллер, драма Режиссер: Нельсон Крегг, Крэйг Уилльям Макнейлл, Тай Уэст В ролях: Дебора Айоринде, Эшли Томас, Шахади Райт Джозеф, Пэт Хили, Райан Квантен, Кристофер Хейердал, Джеремайя Биркетт, Лиам МакИнтайр, Элисон Пилл, Эбби Кобб О фильме: Действие второго сезона детективно-мистического сериала «Они» разворачивается в Лос-Анджелесе 1991 года и будет посвящено различным проблемам расизма того времени. В центре сюжета находится женщина-детектив Дон Рив, она является единственной цветной женщиной в своем подразделении, которая расследует тревожное дело об ужасном убийстве приемной матери, которое потрясло даже самых закаленных детективов. Но оказалось, что это только начало и детективы Дон Рив и Рональд Маккинни должны расследовать серию инцидентов с применением насилия в их районе. Переживая неспокойное время в Лос-Анджелесе, когда город находится на грани хаоса, Дон полна решимости остановить убийцу. Но по мере того, как она приближается к истине, что-то зловещее и злое охватывает ее и ее семью Страна: США Продолжительность: ~00:40:00 серия Перевод: Профессиональный (многоголосый, закадровый) HDrezka Studio Файл Кодек: MKV Качество: WEB-DL 720p Видео: AVC, 1248x520 (2,000), 2583 kbps (0.166 b/px), 23,976 fps Звук: Аудио #1: AC3, 192 kbps (CBR), 48.0 KHz (16 bits), 2 ch, Russian - HDRezka Studio Аудио #2: AC3, 192 kbps (CBR), 48.0 KHz (16 bits), 2 ch, Russian - HDRezka Studio 18+ Аудио #3: E-AC3, 640 kbps (CBR), 48.0 KHz, 6 ch, English Субтитры: Русские (Forced, Full), английские РЕКЛАМЫ НЕТ
[+] MediaInfoОбщее Уникальный идентификатор : 43403950864031960273006135251406477420 (0x20A74BFF801378C22AC0D19FE154D86C) Полное имя : E:СЕРИАЛЫThem.S02.720pThem.S02E01.720p.mkv Формат : Matroska Версия формата : Version 4 Размер файла : 1 017 Мбайт Продолжительность : 39 м. 23 с. Общий поток : 3 609 Кбит/сек Частота кадров : 23,976 кадра/сек Дата кодирования : 2024-05-13 13:24:22 UTC Программа кодирования : mkvmerge v45.0.0 ('Heaven in Pennies') 64-bit Библиотека кодирования : libebml v1.3.10 + libmatroska v1.5.2 Видео Идентификатор : 1 Формат : AVC Формат/Информация : Advanced Video Codec Профиль формата : High@L3.1 Настройки формата : CABAC / 4 Ref Frames Параметр CABAC формата : Да Параметр RefFrames формата : 4 кадра Идентификатор кодека : V_MPEG4/ISO/AVC Продолжительность : 39 м. 23 с. Вид битрейта : Постоянный Битрейт : 2 583 Кбит/сек Номинальный битрейт : 4 000 Кбит/сек Ширина : 1 248 пикселей Высота : 520 пикселей Соотношение сторон : 2,40:1 Режим частоты кадров : Постоянный Частота кадров : 23,976 (24000/1001) кадра/сек Цветовое пространство : YUV Субдискретизация насыщенности : 4:2:0 Битовая глубина : 8 бит Тип развёртки : Прогрессивная Бит/(Пиксели*Кадры) : 0.166 Размер потока : 728 Мбайт (72%) Язык : English Default : Да Forced : Нет Цветовой диапазон : Limited Основные цвета : BT.709 Характеристики трансфера : BT.709 Коэффициенты матрицы : BT.709 Аудио #1 Идентификатор : 2 Формат : AC-3 Формат/Информация : Audio Coding 3 Коммерческое название : Dolby Digital Идентификатор кодека : A_AC3 Продолжительность : 39 м. 23 с. Вид битрейта : Постоянный Битрейт : 192 Кбит/сек Каналы : 2 канала Channel layout : L R Частота : 48,0 КГц Частота кадров : 31,250 кадров/сек (1536 SPF) Метод сжатия : С потерями Размер потока : 54,1 Мбайт (5%) Заголовок : HDR Язык : Russian Service kind : Complete Main Default : Да Forced : Нет Аудио #2 Идентификатор : 3 Формат : AC-3 Формат/Информация : Audio Coding 3 Коммерческое название : Dolby Digital Идентификатор кодека : A_AC3 Продолжительность : 39 м. 23 с. Вид битрейта : Постоянный Битрейт : 192 Кбит/сек Каналы : 2 канала Channel layout : L R Частота : 48,0 КГц Частота кадров : 31,250 кадров/сек (1536 SPF) Метод сжатия : С потерями Размер потока : 54,1 Мбайт (5%) Заголовок : HDR 18+ Язык : Russian Service kind : Complete Main Default : Нет Forced : Нет Аудио #3 Идентификатор : 4 Формат : E-AC-3 Формат/Информация : Enhanced AC-3 Коммерческое название : Dolby Digital Plus Идентификатор кодека : A_EAC3 Продолжительность : 39 м. 23 с. Вид битрейта : Постоянный Битрейт : 640 Кбит/сек Каналы : 6 каналов Channel layout : L R C LFE Ls Rs Частота : 48,0 КГц Частота кадров : 31,250 кадров/сек (1536 SPF) Метод сжатия : С потерями Размер потока : 180 Мбайт (18%) Язык : English Service kind : Complete Main Default : Нет Forced : Нет Текст #1 Идентификатор : 5 Формат : UTF-8 Идентификатор кодека : S_TEXT/UTF8 Идентификатор кодека/Информация : UTF-8 Plain Text Продолжительность : 35 м. 49 с. Битрейт : 1 бит/сек Частота кадров : 0,005 кадр/сек Count of elements : 10 Размер потока : 517 байт (0%) Заголовок : fors Язык : Russian Default : Да Forced : Нет Текст #2 Идентификатор : 6 Формат : UTF-8 Идентификатор кодека : S_TEXT/UTF8 Идентификатор кодека/Информация : UTF-8 Plain Text Продолжительность : 37 м. 46 с. Битрейт : 69 бит/сек Частота кадров : 0,178 кадр/сек Count of elements : 403 Размер потока : 19,4 Кбайт (0%) Язык : Russian Default : Нет Forced : Нет Текст #3 Идентификатор : 7 Формат : UTF-8 Идентификатор кодека : S_TEXT/UTF8 Идентификатор кодека/Информация : UTF-8 Plain Text Продолжительность : 34 м. 59 с. Битрейт : 58 бит/сек Частота кадров : 0,223 кадр/сек Count of elements : 469 Размер потока : 15,1 Кбайт (0%) Язык : English Default : Нет Forced : Нет Текст #4 Идентификатор : 8 Формат : UTF-8 Идентификатор кодека : S_TEXT/UTF8 Идентификатор кодека/Информация : UTF-8 Plain Text Продолжительность : 37 м. 28 с. Битрейт : 65 бит/сек Частота кадров : 0,260 кадр/сек Count of elements : 584 Размер потока : 18,1 Кбайт (0%) Заголовок : SDH Язык : English Default : Нет Forced : Нет Меню 00:00:00.000 : en:Prime Video 00:00:06.000 : en:Scene 1 00:02:10.000 : en:Scene 2 00:03:01.000 : en:Scene 3 00:03:38.000 : en:Scene 4 00:03:57.000 : en:Scene 5 00:06:44.000 : en:Scene 6 00:08:09.000 : en:Scene 7 00:08:40.000 : en:Scene 8 00:10:53.000 : en:Scene 9 00:11:50.000 : en:Scene 10 00:13:10.000 : en:Scene 11 00:15:02.000 : en:Scene 12 00:15:49.000 : en:Scene 13 00:16:31.000 : en:Scene 14 00:17:40.000 : en:Scene 15 00:19:22.000 : en:Scene 16 00:20:21.000 : en:Scene 17 00:21:16.000 : en:Scene 18 00:23:42.000 : en:Scene 19 00:25:26.000 : en:Scene 20 00:26:53.000 : en:Scene 21 00:27:29.000 : en:Scene 22 00:29:56.000 : en:Scene 23 00:30:39.000 : en:Scene 24 00:31:10.000 : en:Scene 25 00:31:27.000 : en:Scene 26 00:31:55.000 : en:Scene 27 00:33:11.000 : en:Scene 28 00:35:50.000 : en:End Credits
[+] Скриншоты

Всего файлов в раздаче: 8 
Them.S02E01.720p.mkv1016.99 MB
Them.S02E02.720p.mkv1.02 GB
Them.S02E03.720p.mkv1000.91 MB
Them.S02E04.720p.mkv976.85 MB
Them.S02E05.720p.mkv850.13 MB
Them.S02E06.720p.mkv763.31 MB
Them.S02E07.720p.mkv754.09 MB
Them.S02E08.720p.mkv902.40 MB

Похожие раздачи по запросу - Они
2023-07-24 magnet Они клонировали Тайрона / They Cloned Tyrone (2023) WEB-DL 1080p от New-Team | HDRezka Studio 7.49 GB ↑ 0 ↓ 0

Комментарии


Зарегистрируйтесь чтобы добавить комментарий
Торрент клиент
byTorrent - программа для загрузки торрент-файлов.

Скачать byTorrent.exe (1,5 МБ)

Скачать byTorrent.zip (0,6 МБ)

Поддержи torrent.by
российских рублей
(300 российских рублей это 4$)

Обратная связь rss

End game ©