↑↓torrent.by
Поиск
Логин:  Регистрация
Пароль:

Мать невесты / Mother of the Bride (2024) WEB-DLRip от New-Team | P | TVShows

download Скачать торрент-файл   magnet Магнитная ссылка Размер: 1.46 GB Раздают: 1 Качают: 1 Добавлен: 2024-05-16 05:00
Пиры будут получены из сети DHT
Последний сидер был замечен сегодня в 17:31
Мать невесты / Mother of the Bride Год выпуска: 2024 Выпущено: США / Living Films Жанр: драма, мелодрама, комедия Режиссер: Марк Уотерс / Mark Waters В ролях: Брук Шилдс, Бенджамин Брэтт, Миранда Косгров, Рэйчел Харрис, Шон Тил, Чад Майкл Мюррей, Майкл Макдональд, Уилсон Крус, Тэсним Рок, Далип Сондхи, Сахаяк Бунтханакит, Сью Своллоу, Кит Шиллито, Пхукит Мановонг, Киттия Канджанаком О фильме: Дочь Ланы Эмма возвращается из Лондона и объявляет, что выходит замуж в следующем месяце. Ситуация усложняется, когда Лана узнает, что человек, который украл сердце Эммы, является сыном человека, который разбил ей сердце много лет назад. Продолжительность: 01:30:24 Перевод: Профессиональный (многоголосый, закадровый) | TVShows Субтитры: Русские, английские Раздача от: Автор релиза: JNS82. Формат: AVI Качество: WEB-DLRip Видео: 704x352 (2.000), 23.976 fps, XviD MPEG-4 ~ 1923 kbps avg, 0.324 bit/pixel, build 74 Аудио: 48 kHz, AC3 Dolby Digital, 3/2 (L,C,R,l,r) + LFE ch, ~ 384 kbps | RUS |
[+] MediaInfoОбщее Полное имя : D:TorrentsMother.of.the.Bride.2024.WEB-DLRip_от New-Team_by_JNS82Mother.of.the.Bride.2024.WEB-DLRip_от New-Team_by_JNS82.avi Формат : AVI Формат/Информация : Audio Video Interleave Размер файла : 1,46 Гбайт Продолжительность : 1 ч. 30 м. Общий поток : 2 317 Кбит/сек Программа кодирования : VirtualDubMod 1.5.10.2 (build 2540/release) Библиотека кодирования : VirtualDubMod build 2540/release Видео Идентификатор : 0 Формат : MPEG-4 Visual Профиль формата : Advanced Simple@L5 Настройки формата : BVOP1 / Custom Matrix Параметр BVOP формата : 1 Параметр QPel формата : Нет Параметр GMC формата : Без точки перехода Параметр матрицы формата : Выборочная Идентификатор кодека : XVID Идентификатор кодека/Подсказка : XviD Продолжительность : 1 ч. 30 м. Битрейт : 1 923 Кбит/сек Ширина : 704 пикселя Высота : 352 пикселя Соотношение сторон : 2,000 Частота кадров : 23,976 (24000/1001) кадра/сек Цветовое пространство : YUV Субдискретизация насыщенности : 4:2:0 Битовая глубина : 8 бит Тип развёртки : Прогрессивная Метод сжатия : С потерями Бит/(Пиксели*Кадры) : 0.324 Размер потока : 1,21 Гбайт (83%) Библиотека кодирования : XviD 74 Аудио Идентификатор : 1 Формат : AC-3 Формат/Информация : Audio Coding 3 Коммерческое название : Dolby Digital Идентификатор кодека : 2000 Продолжительность : 1 ч. 30 м. Вид битрейта : Постоянный Битрейт : 384 Кбит/сек Каналы : 6 каналов Channel layout : L R C LFE Ls Rs Частота : 48,0 КГц Частота кадров : 31,250 кадров/сек (1536 SPF) Метод сжатия : С потерями Размер потока : 248 Мбайт (17%) Выравнивание : Разделение по промежуткам Продолжительность промежутка : 42 мс. (1,00 видеокадр) Время предзагрузки промежутка : 500 мс. Service kind : Complete Main

Всего файлов в раздаче: 3 
Mother.of.the.Bride.2024.WEB-DLRip_от New-Team_by_JNS82.avi1.46 GB
Mother.of.the.Bride.2024.WEB-DLRip_от New-Team_by_JNS82_[eng].srt122.36 kB
Mother.of.the.Bride.2024.WEB-DLRip_от New-Team_by_JNS82_[rus].srt135.86 kB

Похожие раздачи по запросу - Мать
2024-05-13 magnet На правах матери / Мать и мачеха [S01] (2024) WEB-DLRip от Files-х 4.80 GB ↑ 0 ↓ 0
2024-05-13 magnet На правах матери / Мать и мачеха [S01] (2024) WEB-DL 1080p 10.52 GB ↑ 0 ↓ 0
2024-05-13 magnet На правах матери / Мать и мачеха [S01] (2024) WEB-DLRip-AVC от Files-х 4.83 GB ↑ 0 ↓ 0
2024-03-06 magnet Мать / The Mother (2023) WEB-DLRip 720p от DoMiNo & селезень | P | Jaskier, HDRezka Studio 3.49 GB ↑ 0 ↓ 0
2023-11-18 magnet Ансамбль Христа Спасителя и Мать Сыра Земля - Отрицательный Отбор (2023) MP3 118.23 MB ↑ 0 ↓ 0

Комментарии


Зарегистрируйтесь чтобы добавить комментарий
Торрент клиент
byTorrent - программа для загрузки торрент-файлов.

Скачать byTorrent.exe (1,5 МБ)

Скачать byTorrent.zip (0,6 МБ)

Поддержи torrent.by
российских рублей
(300 российских рублей это 4$)

Обратная связь rss

End game ©