↑↓torrent.by
Поиск
Логин:  Регистрация
Пароль:

Спящие псы / Sleeping Dogs (2024) WEB-DL 1080p от селезень | D | Локализованная версия

download Скачать торрент-файл   magnet Магнитная ссылка Размер: 5.12 GB Добавлен: 2024-05-16 05:00
Пиры будут получены из сети DHT
Последний сидер был замечен 2024-05-20 16:06
Информация о фильме Название: Спящие псы Оригинальное название: Sleeping Dogs Год выхода: 2024 Жанр: детектив, триллер, криминал Режиссер: Адам Купер В ролях: Рассел Кроу, Карен Гиллан, Мартон Чокаш, Томми Флэнаган, Томас М. Райт, Гарри Гринвуд, Пачаро Мзембе, Линн Гилмартин, Паула Арунделл, Элизабет Блэкмор О фильме: После лечения провалов в памяти бывший детектив по расследованию убийств пересматривает дело десятилетней давности, связанное с жестоким убийством профессора колледжа. Страна: Австралия, США Студия: Film Victoria, G2 Dispatch, Gala Media Capital, Gramercy Park Media, Highland Film Group (HFG) Продолжительность: 01:51:13 Перевод: Дублированный | Мосфильм-Мастер Качество: WEB-DL 1080p Видео: MPEG-4 AVC, 1920x1080, 6144 Kbit/s, 24.000 fps Аудио: 48 kHz, AC3, 5.1, 640 Kbps | Дублированный | Мосфильм-Мастер | RUS | Субтитры: Русские (Forced - хардсаб)
[+] MIGeneral Unique ID : 106234845344571983375580673109255879380 (0x4FEC16443B8736AE5A16A4E8EEAD7AD4) Complete name : H:VideoHSleeping.Dogs.2024.WEB-DL.1080p.seleZen.mkv Format : Matroska Format version : Version 4 File size : 5.12 GiB Duration : 1 h 51 min Overall bit rate mode : Constant Overall bit rate : 6 593 kb/s Frame rate : 24.000 FPS Movie name : Sleeping Dogs 2024 from seleZen Encoded date : 2024-05-15 10:20:32 UTC Writing application : mkvmerge v80.0 ('Roundabout') 64-bit Writing library : libebml v1.4.4 + libmatroska v1.7.1 Video ID : 1 Format : AVC Format/Info : Advanced Video Codec Format profile : Constrained Baseline@L4 Format settings : 2 Ref Frames Format settings, CABAC : No Format settings, Reference : 2 frames Format settings, Slice coun : 7 slices per frame Codec ID : V_MPEG4/ISO/AVC Duration : 1 h 51 min Bit rate mode : Constant Bit rate : 6 144 kb/s Width : 1 920 pixels Height : 1 080 pixels Display aspect ratio : 16:9 Frame rate mode : Constant Frame rate : 24.000 FPS Color space : YUV Chroma subsampling : 4:2:0 Bit depth : 8 bits Scan type : Progressive Bits/(Pixel*Frame) : 0.123 Stream size : 4.62 GiB (90%) Language : English Default : Yes Forced : No Audio ID : 2 Format : AC-3 Format/Info : Audio Coding 3 Commercial name : Dolby Digital Codec ID : A_AC3 Duration : 1 h 51 min Bit rate mode : Constant Bit rate : 640 kb/s Channel(s) : 6 channels Channel layout : L R C LFE Ls Rs Sampling rate : 48.0 kHz Frame rate : 31.250 FPS (1536 SPF) Compression mode : Lossy Stream size : 509 MiB (10%) Title : Dub Language : Russian Service kind : Complete Main Default : Yes Forced : No
Релиз: Присоединяйся к: Кликай на баннеры.

Всего файлов в раздаче: 1 
Sleeping.Dogs.2024.WEB-DL.1080p.seleZen.mkv5.12 GB

Похожие раздачи по запросу - Спящие
2024-05-16 magnet Спящие псы / Sleeping Dogs (2024) WEB-DLRip от MegaPeer | D | Мосфильм-Мастер 1.46 GB ↑ 0 ↓ 0
2024-05-16 magnet Спящие псы / Sleeping Dogs (2024) WEB-DLRip от MegaPeer | D, P2 | Soundmasters, ViruseProject 1.42 GB ↑ 0 ↓ 0
2024-05-16 magnet Спящие псы / Sleeping Dogs (2024) WEB-DLRip-AVC от DoMiNo & селезень | D | Локализованная версия 1.44 GB ↑ 0 ↓ 1
2024-05-16 magnet Спящие псы / Sleeping Dogs (2024) WEB-DLRip 720p от DoMiNo & селезень | D, P2, L | Мосфильм-Мастер, Soundmasters, ViruseProject 3.97 GB ↑ 0 ↓ 2
2024-05-15 magnet Спящие псы / Sleeping Dogs (2024) WEB-DL 1080p от ELEKTRI4KA | D, P, L 6.90 GB ↑ 0 ↓ 0
2024-05-04 magnet Спящие псы / Sleeping Dogs (2024) WEB-DL 1080p от New-Team | D, P2, L 6.75 GB ↑ 0 ↓ 0
2024-05-04 magnet Спящие псы / Sleeping Dogs (2024) WEB-DLRip-AVC от New-Team | D, L | Soundmasters 1.85 GB ↑ 0 ↓ 0

Комментарии


Зарегистрируйтесь чтобы добавить комментарий
Торрент клиент
byTorrent - программа для загрузки торрент-файлов.

Скачать byTorrent.exe (1,5 МБ)

Скачать byTorrent.zip (0,6 МБ)

Поддержи torrent.by
российских рублей
(300 российских рублей это 4$)

Обратная связь rss

End game ©