↑↓torrent.by
Поиск
Логин:  Регистрация
Пароль:

Слепой метод [3 сезон: 1-4 серии из 4] WEB-DL 1080p от ExKinoRay

download Скачать торрент-файл   magnet Магнитная ссылка Размер: 6.60 GB Добавлен: il68k 2024-05-16 10:58
Пиры будут получены из сети DHT
Последний сидер был замечен вчера в 17:09
Информация о сериале Название: Слепой метод Год выхода: 2024 Жанр: Детектив, криминал Режиссер: Татьяна Кутихина В ролях: Дмитрий Исаев, Евгения Вайс, Максим Виноградов, Антон Афанасьев, Игорь Трошин, Екатерина Каратеева, Максим Иванов, Полина Доманова, Александр Власенко (II), Анастасия Филимонова, Янина Соколовская, Сергей Иванюк, Александр Анисимов (IV), Анастасия Шаповал, Сергей Шанин О сериале: Детективный дуэт сиделки Ксении Воронцовой и полковника Анатолия Акимова, бывшего начальника следственного отдела РОВД, потерявшего зрение в ходе неудавшегося покушения, продолжает свои расследования. На этот раз им предстоит раскрыть дело о похищении яйца Фаберже, которое легкомысленные хозяева держали у всех на виду, а также смерть бывшего сослуживца Акимова, а ныне преподавателя юридического института. Страна: Россия Студия: ЭФ ДИСТРИБЬЮШН Продолжительность: 4 х ~ 00:44:00 Язык: Русский Субтитры: Русские (полные) Файл Формат: MKV Качество: WEB-DL 1080p Видео: MPEG-4 AVC, ~ 5120 Кбит/с, 1920x1080, 25 кадр/с Звук: AC3, 2 ch, 256 Кбит/с (с цензурой)
[+] MediaInfo General Unique ID: 301205526975185770956169098549717652720 (0xE29A130AACEBAAC568AAFA1B53A454F0) Complete name: G:Slepoj.metod.S03.2024.WEB-DL.1080p.ExKinoRaySlepoj.metod.S03.E01.2024.WEB-DL.1080p.ExKinoRay.mkv Format: Matroska Format version: Version 4 File size: 1.65 GiB Duration: 44 min 0 s Overall bit rate: 5 375 kb/s Encoded date: UTC 2024-05-16 01:20:13 Writing application: mkvmerge v56.1.0 ('My Friend') 64-bit Writing library: libebml v1.4.2 + libmatroska v1.6.4 Video ID: 1 Format: AVC Format/Info: Advanced Video Codec Format profile: High@L4 Format settings: CABAC / 4 Ref Frames Format settings, CABAC: Yes Format settings, Reference frames: 4 frames Codec ID: V_MPEG4/ISO/AVC Duration: 44 min 0 s Bit rate: 5 120 kb/s Width: 1 920 pixels Height: 1 080 pixels Display aspect ratio: 16:9 Frame rate mode: Constant Frame rate: 25.000 FPS Color space: YUV Chroma subsampling: 4:2:0 Bit depth: 8 bits Scan type: Progressive Bits/(Pixel*Frame): 0.099 Stream size: 1.57 GiB (95%) Writing library: x264 core 152 r2854 e9a5903 Encoding settings: cabac=1 / ref=3 / deblock=1:0:0 / analyse=0x3:0x113 / me=hex / subme=7 / psy=1 / psy_rd=1.00:0.00 / mixed_ref=1 / me_range=16 / chroma_me=1 / trellis=1 / 8x8dct=1 / cqm=0 / deadzone=21, 11 / fast_pskip=1 / chroma_qp_offset=-2 / threads=34 / lookahead_threads=5 / sliced_threads=0 / nr=0 / decimate=1 / interlaced=0 / bluray_compat=0 / constrained_intra=0 / bframes=6 / b_pyramid=2 / b_adapt=1 / b_bias=0 / direct=1 / weightb=1 / open_gop=0 / weightp=2 / keyint=50 / keyint_min=26 / scenecut=0 / intra_refresh=0 / rc_lookahead=40 / rc=2pass / mbtree=1 / bitrate=5120 / ratetol=1.0 / qcomp=0.60 / qpmin=0 / qpmax=69 / qpstep=4 / cplxblur=20.0 / qblur=0.5 / vbv_maxrate=7680 / vbv_bufsize=20480 / nal_hrd=none / filler=0 / ip_ratio=1.40 / aq=1:1.00 Language: Russian Default: Yes Forced: No Audio ID: 2 Format: AC-3 Format/Info: Audio Coding 3 Commercial name: Dolby Digital Codec ID: A_AC3 Duration: 44 min 0 s Bit rate mode: Constant Bit rate: 256 kb/s Channel(s): 2 channels Channel layout: L R Sampling rate: 48.0 kHz Frame rate: 31.250 FPS (1536 SPF) Compression mode: Lossy Stream size: 80.6 MiB (5%) Language: Russian Service kind: Complete Main Default: Yes Forced: No Text ID: 3 Format: UTF-8 Codec ID: S_TEXT/UTF8 Codec ID/Info: UTF-8 Plain Text Duration: 43 min 8 s Bit rate: 134 b/s Frame rate: 0.355 FPS Count of elements: 918 Stream size: 42.4 KiB (0%) Language: Russian Default: No Forced: No
[+] Скриншоты

Всего файлов в раздаче: 4 
Slepoj.metod.S03.E01.2024.WEB-DL.1080p.ExKinoRay.mkv1.65 GB
Slepoj.metod.S03.E02.2024.WEB-DL.1080p.ExKinoRay.mkv1.65 GB
Slepoj.metod.S03.E03.2024.WEB-DL.1080p.ExKinoRay.mkv1.65 GB
Slepoj.metod.S03.E04.2024.WEB-DL.1080p.ExKinoRay.mkv1.65 GB

Похожие раздачи по запросу - Слепой
2024-05-19 magnet Слепой метод [S03] (2024) WEB-DLRip-AVC от Generalfilm | КПК 798.19 MB ↑ 0 ↓ 0
2024-05-17 magnet Слепой метод [S01-03] (2022-2024) WEB-DLRip от Files-x 6.60 GB ↑ 0 ↓ 0
2024-05-17 magnet Слепой метод [S03] (2024) WEB-DL 720p от Files-x 3.39 GB ↑ 0 ↓ 0
2024-05-16 magnet Слепой метод [S03] (2024) WEB-DLRip-AVC от Files-х 2.21 GB ↑ 0 ↓ 0
2024-05-15 magnet Слепой метод / Сезон: 3 / Серии: 1-4 из 4 [2024, детектив, WEBRip-AVC] от Aleksan55 2.18 GB ↑ 1 ↓ 0
2024-05-15 magnet Слепой / The Blind (2023) BDRip от New-Team | P 1.46 GB ↑ 0 ↓ 0

Кто качает (только для создателя раздачи и модераторов): Локальные пиры отсутствуют

Комментарии


Зарегистрируйтесь чтобы добавить комментарий
Торрент клиент
byTorrent - программа для загрузки торрент-файлов.

Скачать byTorrent.exe (1,5 МБ)

Скачать byTorrent.zip (0,6 МБ)

Поддержи torrent.by
российских рублей
(300 российских рублей это 4$)

Обратная связь rss

End game ©