↑↓torrent.by
Поиск
Логин:  Регистрация
Пароль:

Годзилла и Конг: Новая империя / Ґодзілла та Конґ: Нова імперія / Godzilla x Kong: The New Empire (2024) WEB-DL 1080p | D | UKR

download Скачать торрент-файл   magnet Магнитная ссылка Размер: 8.47 GB Раздают: 0 Качают: 2 Добавлен: 2024-05-16 11:00
Пиры будут получены из сети DHT
Последний сидер был замечен вчера в 23:55
Информация о фильме Название: Годзилла и Конг: Новая империя Оригинальное название: Godzilla x Kong: The New Empire Год выхода: 2024 Жанр: фантастика, боевик Режиссер: Адам Вингард В ролях: Ребекка Холл, Брайан Тайри Генри, Дэн Стивенс, Кэйли Хоттл, Алекс Фернс, Чэнь Фала, Рэйчел Хаус, Рональд Смик, Чантелл Джемисон, Грег Хаттон О фильме: Два древних титана, Годзилла и Конг, сражаются в эпической битве, пока люди разгадывают их происхождение и связь с тайнами Острова черепа. Страна: США, Австралия Продолжительность: 01:55:04 Перевод: Дублированный (Украинский) Файл Кодек: x.264 Качество: WEB-DL 1080p Видео: AVC, 1920x800 (2.40:1), 23.976 fps, 9 294 kb/s Аудио 1: E-AC3, 48.0 kHz, 6 ch, 256 kb/s | UKR Аудио 2: AC3, 48.0 kHz, 6 ch, 384 kb/s | UKR Аудио 3: E-AC3, 48.0 kHz, 6 ch, 640 kb/s | ENG Субтитры: украинские (forced), английские (forced, full, SDH)
[+] MIGeneral Unique ID : 173183734831417453788558081155253735542 (0x8249F95D42390123BE92605EA0AD1076) Complete name : Godzilla x Kong The New Empire (2024) WEB-DL 1080p Ukr Eng.mkv Format : Matroska Format version : Version 4 File size : 8.47 GiB Duration : 1 h 55 min Overall bit rate : 10.5 Mb/s Encoded date : UTC 2024-05-14 18:13:27 Writing application : mkvmerge v8.3.0 ('Over the Horizon') 64bit Writing library : libebml v1.3.1 + libmatroska v1.4.2 Video ID : 1 Format : AVC Format/Info : Advanced Video Codec Format profile : High@L4 Format settings : CABAC / 4 Ref Frames Format settings, CABAC : Yes Format settings, Reference frames : 4 frames Codec ID : V_MPEG4/ISO/AVC Duration : 1 h 54 min Bit rate mode : Constant Bit rate : 9 294 kb/s Nominal bit rate : 10 000 kb/s Width : 1 920 pixels Height : 800 pixels Display aspect ratio : 2.40:1 Frame rate mode : Constant Frame rate : 23.976 (24000/1001) FPS Color space : YUV Chroma subsampling : 4:2:0 Bit depth : 8 bits Scan type : Progressive Bits/(Pixel*Frame) : 0.252 Stream size : 7.44 GiB (88%) Default : Yes Forced : No Color range : Limited Color primaries : BT.709 Transfer characteristics : BT.709 Matrix coefficients : BT.709 Audio #1 ID : 2 Format : E-AC-3 Format/Info : Enhanced AC-3 Commercial name : Dolby Digital Plus Codec ID : A_EAC3 Duration : 1 h 55 min Bit rate mode : Constant Bit rate : 256 kb/s Channel(s) : 6 channels Channel layout : L R C LFE Ls Rs Sampling rate : 48.0 kHz Frame rate : 31.250 FPS (1536 SPF) Compression mode : Lossy Stream size : 211 MiB (2%) Title : DUB Language : Ukrainian Service kind : Complete Main Default : No Forced : No Audio #2 ID : 3 Format : AC-3 Format/Info : Audio Coding 3 Commercial name : Dolby Digital Codec ID : A_AC3 Duration : 1 h 55 min Bit rate mode : Constant Bit rate : 384 kb/s Channel(s) : 6 channels Channel layout : L R C LFE Ls Rs Sampling rate : 48.0 kHz Frame rate : 31.250 FPS (1536 SPF) Compression mode : Lossy Stream size : 316 MiB (4%) Title : DUB Language : Ukrainian Service kind : Complete Main Default : No Forced : No Audio #3 ID : 4 Format : E-AC-3 Format/Info : Enhanced AC-3 Commercial name : Dolby Digital Plus Codec ID : A_EAC3 Duration : 1 h 54 min Bit rate mode : Constant Bit rate : 640 kb/s Channel(s) : 6 channels Channel layout : L R C LFE Ls Rs Sampling rate : 48.0 kHz Frame rate : 31.250 FPS (1536 SPF) Compression mode : Lossy Stream size : 525 MiB (6%) Title : Original Language : English Service kind : Complete Main Default : No Forced : No Text #1 ID : 5 Format : UTF-8 Codec ID : S_TEXT/UTF8 Codec ID/Info : UTF-8 Plain Text Duration : 1 h 43 min Bit rate : 5 b/s Count of elements : 89 Stream size : 4.34 KiB (0%) Title : Forced Language : Ukrainian Default : Yes Forced : No Text #2 ID : 6 Format : UTF-8 Codec ID : S_TEXT/UTF8 Codec ID/Info : UTF-8 Plain Text Duration : 1 h 33 min Bit rate : 1 b/s Count of elements : 56 Stream size : 1.28 KiB (0%) Title : Forced Language : English Default : No Forced : No Text #3 ID : 7 Format : UTF-8 Codec ID : S_TEXT/UTF8 Codec ID/Info : UTF-8 Plain Text Duration : 1 h 45 min Bit rate : 38 b/s Count of elements : 956 Stream size : 30.1 KiB (0%) Title : Full Language : English Default : No Forced : No Text #4 ID : 8 Format : UTF-8 Codec ID : S_TEXT/UTF8 Codec ID/Info : UTF-8 Plain Text Duration : 1 h 54 min Bit rate : 53 b/s Count of elements : 1654 Stream size : 44.4 KiB (0%) Title : SDH Language : English Default : No Forced : No
[+] Скриншоты

Всего файлов в раздаче: 1 
Godzilla x Kong The New Empire (2024) WEB-DL 1080p Ukr Eng.mkv8.47 GB

Похожие раздачи по запросу - Годзилла
2024-05-19 magnet Годзилла и Конг: Новая империя / Godzilla x Kong: The New Empire (2024) UHD WEB-DL-HEVC 2160p | 4K | Dolby Vision TV | D, P 21.05 GB ↑ 0 ↓ 6
2024-05-18 magnet Годзилла и Конг: Новая империя / Ґодзілла та Конґ: Нова імперія / Godzilla x Kong: The New Empire (2024) WEB-DL-HEVC 2160p | 4K | SDR | D | UKR 12.70 GB ↑ 0 ↓ 2
2024-05-18 magnet Годзилла и Конг: Новая империя / Godzilla x Kong: The New Empire (2024) UHD WEB-DL-HEVC 2160p | 4K | HDR | Dolby Vision Profile 8 | D, P 21.08 GB ↑ 0 ↓ 5
2024-05-16 magnet Годзилла и Конг: Новая империя / Ґодзілла та Конґ: Нова імперія / Godzilla x Kong: The New Empire (2024) WEB-DL-HEVC 2160p | 4K | HDR | D | UKR 16.69 GB ↑ 0 ↓ 2
2024-05-16 magnet Годзилла и Конг: Новая империя / Godzilla x Kong: The New Empire (2024) WEB-DL 1080p от Jaskier | P 8.11 GB ↑ 0 ↓ 1
2024-05-15 magnet Годзилла и Конг: Новая империя / Godzilla x Kong: The New Empire [2024, фантастика, боевик, WEB-DLRip-AVC] Dub (Bravo Records Georgia) 1.46 GB ↑ 0 ↓ 4
2024-05-15 magnet Годзилла и Конг: Новая империя / Godzilla x Kong: The New Empire (2024) WEB-DL 1080p от Scarabey | D | Bravo Records 8.11 GB ↑ 0 ↓ 0

Комментарии


Зарегистрируйтесь чтобы добавить комментарий
Торрент клиент
byTorrent - программа для загрузки торрент-файлов.

Скачать byTorrent.exe (1,5 МБ)

Скачать byTorrent.zip (0,6 МБ)

Поддержи torrent.by
российских рублей
(300 российских рублей это 4$)

Обратная связь rss

End game ©