↑↓torrent.by
Поиск
Логин:  Регистрация
Пароль:

Проклятие монахини 2 / The Nun II (2023) BDRip-AVC от DoMiNo & селезень | D | Лицензия

download Скачать торрент-файл   magnet Магнитная ссылка Размер: 746.35 MB Добавлен: 2024-05-16 11:00
Пиры будут получены из сети DHT
Последний сидер был замечен 2024-05-16 11:00
Информация о фильме Название: Проклятие монахини 2 Оригинальное название: The Nun II Год выпуска: 2023 Жанр: Ужасы Режиссер: Майкл Чавес В ролях: Таисса Фармига, Йонас Блоке, Сторм Рид, Анна Попплуэлл, Бонни Ааронс, Кейтлин Роуз Дауни, Сюзенн Бертиш, Леонтин д'Онсье, Анук Дарвин Хоумвуд, Питер Хадсон О фильме: Франция, 1956 год. Сестра Ирен расследует убийство священника и понимает, что за ним стоит уже знакомое зло. Демон Валак в образе монахини вновь вселяет ужас во всех, кому не посчастливится с ним встретиться. «Проклятие монахини 2» — продолжение готического фильма ужасов из киновселенной «Заклятие». Выпущено: Великобритания, США, New Line Cinema, Atomic Monster, The Safran Company Продолжительность: 01:49:42 Перевод: Дублированный | Лицензия Субтитры: Русские (Forced, Full), английские Файл Формат: Matroska Качество: BDRip-AVC Видео: 720x300 at 23.976 fps, x264@L4.1, ~854 kbps Аудио: AAC, 2 ch, ~96 kbps - | Русский | Формат субтитров: softsub (SRT) ***Рип от: -=DoMiNo=-
[+] M/IGeneral Unique ID : 149291505433768936639577208254659428295 (0x70507F81E484A60AECD5216BE801FFC7) Complete name : B:The.Nun.II.2023.BDRip.x264.seleZen.mkv Format : Matroska Format version : Version 4 File size : 746 MiB Duration : 1 h 49 min Overall bit rate : 951 kb/s Frame rate : 23.976 FPS Movie name : The.Nun.II.2023.BDRip.x264.seleZen Encoded date : 2023-12-02 16:50:43 UTC Writing application : mkvmerge v81.0 ('Milliontown') 64-bit Writing library : libebml v1.4.4 + libmatroska v1.7.1 Cover : Yes Attachments : cover.jpg / small_cover.jpg Video ID : 1 Format : AVC Format/Info : Advanced Video Codec Format profile : High@L4.1 Format settings : CABAC / 12 Ref Frames Format settings, CABAC : Yes Format settings, Reference : 12 frames Codec ID : V_MPEG4/ISO/AVC Duration : 1 h 49 min Bit rate : 854 kb/s Width : 720 pixels Height : 300 pixels Display aspect ratio : 2.40:1 Frame rate mode : Constant Frame rate : 23.976 (24000/1001) FPS Color space : YUV Chroma subsampling : 4:2:0 Bit depth : 8 bits Scan type : Progressive Bits/(Pixel*Frame) : 0.165 Stream size : 670 MiB (90%) Title : -=DoMiNo=- Writing library : x264 core 164 r3172 c1c9931 Encoding settings : cabac=1 / ref=12 / deblock=1:-1:-1 / analyse=0x3:0x133 / me=umh / subme=10 / psy=1 / psy_rd=0.96:0.05 / mixed_ref=1 / me_range=32 / chroma_me=1 / trellis=2 / 8x8dct=1 / cqm=0 / deadzone=21,11 / fast_pskip=0 / chroma_qp_offset=-3 / threads=17 / lookahead_threads=2 / sliced_threads=0 / nr=0 / decimate=0 / interlaced=0 / bluray_compat=0 / constrained_intra=0 / bframes=12 / b_pyramid=2 / b_adapt=2 / b_bias=0 / direct=3 / weightb=1 / open_gop=0 / weightp=2 / keyint=250 / keyint_min=23 / scenecut=40 / intra_refresh=0 / rc_lookahead=60 / rc=2pass / mbtree=0 / bitrate=854 / ratetol=1.0 / qcomp=0.60 / qpmin=0 / qpmax=69 / qpstep=4 / cplxblur=20.0 / qblur=0.5 / vbv_maxrate=50000 / vbv_bufsize=62500 / nal_hrd=none / filler=0 / ip_ratio=1.20 / pb_ratio=1.30 / aq=3:1.00 Language : English Default : Yes Forced : No Audio ID : 2 Format : AAC LC SBR Format/Info : Advanced Audio Codec Low Complexity with Spectral Band Replication Commercial name : HE-AAC Format settings : Explicit Codec ID : A_AAC-2 Duration : 1 h 49 min Bit rate : 96.0 kb/s Channel(s) : 2 channels Channel layout : L R Sampling rate : 48.0 kHz Frame rate : 23.438 FPS (2048 SPF) Compression mode : Lossy Stream size : 74.3 MiB (10%) Title : Dub Language : Russian Default : Yes Forced : No Text #1 ID : 3 Format : UTF-8 Codec ID : S_TEXT/UTF8 Codec ID/Info : UTF-8 Plain Text Duration : 1 h 43 min Bit rate : 0 b/s Frame rate : 0.001 FPS Count of elements : 7 Stream size : 293 Bytes (0%) Title : Forced Language : Russian Default : No Forced : No Text #2 ID : 4 Format : UTF-8 Codec ID : S_TEXT/UTF8 Codec ID/Info : UTF-8 Plain Text Duration : 1 h 43 min Bit rate : 44 b/s Frame rate : 0.119 FPS Count of elements : 741 Stream size : 34.1 KiB (0%) Title : Full -stirlooo Language : Russian Default : No Forced : No Text #3 ID : 5 Format : UTF-8 Codec ID : S_TEXT/UTF8 Codec ID/Info : UTF-8 Plain Text Duration : 1 h 43 min Bit rate : 25 b/s Frame rate : 0.120 FPS Count of elements : 746 Stream size : 19.2 KiB (0%) Title : Full Language : English Default : No Forced : No Text #4 ID : 6 Format : UTF-8 Codec ID : S_TEXT/UTF8 Codec ID/Info : UTF-8 Plain Text Duration : 1 h 44 min Bit rate : 33 b/s Frame rate : 0.174 FPS Count of elements : 1090 Stream size : 26.0 KiB (0%) Title : SDH Language : English Default : No Forced : No Menu 00:00:00.000 : en:Chapter 01 00:08:06.903 : en:Chapter 02 00:15:49.323 : en:Chapter 03 00:24:38.394 : en:Chapter 04 00:33:08.361 : en:Chapter 05 00:40:34.057 : en:Chapter 06 00:49:47.526 : en:Chapter 07 00:59:32.778 : en:Chapter 08 01:08:43.995 : en:Chapter 09 01:18:04.805 : en:Chapter 10 01:27:33.540 : en:Chapter 11 01:35:02.196 : en:Chapter 12 01:42:28.017 : en:Chapter 13 01:44:27.344 : en:Chapter 14
Релиз: Присоединяйся к: Кликай на баннеры.

Всего файлов в раздаче: 1 
The.Nun.II.2023.BDRip.x264.seleZen.mkv746.35 MB

Похожие раздачи по запросу - Проклятие
2024-04-15 magnet Проклятие. Ночь страха / You Are Not My Mother (2021) BDRip 1080p от MegaPeer | D, A, L2 7.36 GB ↑ 0 ↓ 0
2023-11-09 magnet Проклятие монахини 2 / The Nun II (2023) BDRemux 1080p от селезень | D, P | Лицензия 26.37 GB ↑ 0 ↓ 0
2023-10-04 magnet Проклятие монахини 2 / The Nun II (2023) UHD WEB-DL-HEVC 2160p от селезень | 4K | HDR | Dolby Vision Profile 8 | D | Лицензия 19.95 GB ↑ 0 ↓ 0
2023-07-17 magnet Проклятие. Дом с прислугой 2 / Sleeping Beauties (2023) WEB-DLRip от MegaPeer | D 1.37 GB ↑ 0 ↓ 0
2023-03-03 magnet Проклятие черного паука / Die Schwarze Spinne / The Black Spider (2022) BDRip от MegaPeer | D 1.46 GB ↑ 0 ↓ 0

Кто качает (только для создателя раздачи и модераторов): Локальные пиры отсутствуют

Комментарии


Зарегистрируйтесь чтобы добавить комментарий
Торрент клиент
byTorrent - программа для загрузки торрент-файлов.

Скачать byTorrent.exe (1,5 МБ)

Скачать byTorrent.zip (0,6 МБ)

Поддержи torrent.by
российских рублей
(300 российских рублей это 4$)

Обратная связь rss

End game ©