↑↓torrent.by
Поиск
Логин:  Регистрация
Пароль:

Злобные маленькие письма / Wicked Little Letters (2023) BDRip-AVC от New-Team | A | Сербин

download Скачать торрент-файл   magnet Магнитная ссылка Размер: 2.18 GB Добавлен: 2024-05-16 11:00
Пиры будут получены из сети DHT
Последний сидер был замечен 2024-06-09 15:38
Злобные маленькие письма / Wicked Little Letters Год выпуска: 2023 Выпущено: Великобритания, США, Франция / Blueprint Pictures, Film Four Ltd. Жанр: комедия, драма, детектив, криминал, история Режиссер: Теа Шэррок / Thea Sharrock В ролях: Оливия Колман, Джесси Бакли, Тимоти Сполл, Хью Скиннер, Анджана Васан, Джемма Джонс, Лолли Адефоп, Эйлин Аткинс, Джейсон Уоткинс, Джоанна Скэнлан, Малачи Кирби, Сьюзи Фэйрфакс, Алиша Уэйр, Ричард Гулдинг. О фильме: Действие фильма разворачиваетсятся в 1920-е годы. Жители приморского городка Литлхэмптон однажды начинают получать скандальные письма, написанные в бранной и эксцентричной манере. Первой и главной подозреваемой в этом деле становится Роуз. Девушка обладает своенравным характером, к тому же рискует лишиться опеки над единственной дочерью. Чтобы преодолеть все неприятности, она активно помогает следствию, которое ведет местная представительница стражей правопорядка. Вместе женщины пробуют разобраться в непростом деле, найти и разоблачить подлинного преступника. Продолжительность: 01:40:05 Перевод: Авторский (одноголосый, закадровый) | Ю. Сербин | 18+ Субтитры: Русские (full), английские (full) Раздача от: Автор релиза: JNS82. Формат: MKV Качество: BDRip-AVC Видео: MPEG-4 AVC, 2284 Кбит/с, (1,85:1), 1024x552, 24,000 fps Аудио #1: 48 kHz, AC3 Dolby Digital, 3/2 (L,C,R,l,r) + LFE ch, ~ 384 kbps | RUS | Аудио #2: 48 kHz, AC3 Dolby Digital, 3/2 (L,C,R,l,r) + LFE ch, ~ 448 kbps | ENG |
[+] MediaInfoОбщее Уникальный идентификатор : 4353949215031467604045464961989504685 (0x3468A451ADA80DDB322144F01EC6EAD) Полное имя : D:TorrentsWicked.Little.Letters.2023.BDRip-AVC_от New-Team_by_JNS82.mkv Формат : Matroska Версия формата : Version 4 Размер файла : 2,18 Гбайт Продолжительность : 1 ч. 40 м. Общий поток : 3 118 Кбит/сек Название фильма : Wicked.Little.Letters.2023.BDRip-AVC_от New-Team_by_JNS82 Дата кодирования : UTC 2024-05-15 19:40:29 Программа кодирования : mkvmerge v79.0 ('Funeral Pyres') 64-bit Библиотека кодирования : libebml v1.4.4 + libmatroska v1.7.1 Видео Идентификатор : 1 Формат : AVC Формат/Информация : Advanced Video Codec Профиль формата : High@L4.1 Настройки формата : CABAC / 12 Ref Frames Параметр CABAC формата : Да Параметр RefFrames формата : 12 кадров Идентификатор кодека : V_MPEG4/ISO/AVC Продолжительность : 1 ч. 40 м. Битрейт : 2 284 Кбит/сек Ширина : 1 024 пикселя Высота : 552 пикселя Соотношение сторон : 1,85:1 Режим частоты кадров : Постоянный Частота кадров : 24,000 кадра/сек Цветовое пространство : YUV Субдискретизация насыщенности : 4:2:0 Битовая глубина : 8 бит Тип развёртки : Прогрессивная Бит/(Пиксели*Кадры) : 0.168 Размер потока : 1,60 Гбайт (73%) Библиотека кодирования : x264 core 164 r3156+57M NewTeam t_mod_New Настройки программы : cabac=1 / ref=12 / deblock=1:-3:-3 / analyse=0x3:0x133 / me=umh / subme=10 / psy=1 / fade_compensate=0.00 / psy_rd=1.01:0.05 / mixed_ref=1 / me_range=32 / chroma_me=1 / trellis=2 / 8x8dct=1 / cqm=0 / deadzone=21,11 / fast_pskip=0 / chroma_qp_offset=-3 / threads=17 / lookahead_threads=4 / sliced_threads=0 / nr=0 / decimate=0 / interlaced=0 / bluray_compat=0 / constrained_intra=0 / fgo=0 / bframes=12 / b_pyramid=2 / b_adapt=2 / b_bias=0 / direct=3 / weightb=1 / open_gop=0 / weightp=2 / keyint=240 / keyint_min=23 / scenecut=40 / intra_refresh=0 / rc_lookahead=60 / rc=2pass / mbtree=0 / bitrate=2284 / ratetol=1.0 / qcomp=0.60 / qpmin=0:0:0 / qpmax=69:69:69 / qpstep=5 / cplxblur=20.0 / qblur=0.5 / vbv_maxrate=50000 / vbv_bufsize=62500 / nal_hrd=none / filler=0 / ip_ratio=1.40 / pb_ratio=1.30 / aq=1:1.00 / aq-sensitivity=10.00 / aq-factor=1.00:1.00:1.00 / aq2=0 / aq3=0 Язык : English Default : Да Forced : Нет Цветовой диапазон : Limited Коэффициенты матрицы : BT.709 Аудио #1 Идентификатор : 2 Формат : AC-3 Формат/Информация : Audio Coding 3 Коммерческое название : Dolby Digital Идентификатор кодека : A_AC3 Продолжительность : 1 ч. 40 м. Вид битрейта : Постоянный Битрейт : 384 Кбит/сек Каналы : 6 каналов Channel layout : L R C LFE Ls Rs Частота : 48,0 КГц Частота кадров : 31,250 кадров/сек (1536 SPF) Метод сжатия : С потерями Размер потока : 275 Мбайт (12%) Заголовок : AVO - Сербин | 18+ Язык : Russian Service kind : Complete Main Default : Да Forced : Нет Аудио #2 Идентификатор : 3 Формат : AC-3 Формат/Информация : Audio Coding 3 Коммерческое название : Dolby Digital Идентификатор кодека : A_AC3 Продолжительность : 1 ч. 40 м. Вид битрейта : Постоянный Битрейт : 448 Кбит/сек Каналы : 6 каналов Channel layout : L R C LFE Ls Rs Частота : 48,0 КГц Частота кадров : 31,250 кадров/сек (1536 SPF) Метод сжатия : С потерями Размер потока : 321 Мбайт (14%) Заголовок : Original Язык : English Service kind : Complete Main Default : Нет Forced : Нет Текст #1 Идентификатор : 4 Формат : UTF-8 Идентификатор кодека : S_TEXT/UTF8 Идентификатор кодека/Информация : UTF-8 Plain Text Продолжительность : 1 ч. 31 м. Битрейт : 108 бит/сек Count of elements : 1154 Размер потока : 73,3 Кбайт (0%) Заголовок : Язык : Russian Default : Нет Forced : Нет Текст #2 Идентификатор : 5 Формат : UTF-8 Идентификатор кодека : S_TEXT/UTF8 Идентификатор кодека/Информация : UTF-8 Plain Text Продолжительность : 1 ч. 31 м. Битрейт : 68 бит/сек Count of elements : 1171 Размер потока : 46,1 Кбайт (0%) Заголовок : Язык : English Default : Нет Forced : Нет Меню 00:00:00.000 : :Chapter 01 00:05:04.042 : :Chapter 02 00:12:02.667 : :Chapter 03 00:21:43.792 : :Chapter 04 00:30:34.917 : :Chapter 05 00:39:07.708 : :Chapter 06 00:48:42.083 : :Chapter 07 00:56:13.125 : :Chapter 08 01:04:24.833 : :Chapter 09 01:13:31.042 : :Chapter 10 01:22:39.583 : :Chapter 11 01:32:18.250 : :Chapter 12

Всего файлов в раздаче: 1 
Wicked.Little.Letters.2023.BDRip-AVC_от New-Team_by_JNS82.mkv2.18 GB

Похожие раздачи по запросу - Злобные
Вчера magnet Злобные маленькие письма / Wicked Little Letters (2023) BDRip от MegaPeer | P | TVShows 1.46 GB ↑ 0 ↓ 0
2024-06-09 magnet Злобные маленькие письма / Wicked Little Letters (2023) BDRip 1080p от New-Team | P, A 8.00 GB ↑ 0 ↓ 0
2024-06-09 magnet Злобные маленькие письма / Wicked Little Letters (2023) BDRip 720p от DoMiNo & селезень | P, A 4.49 GB ↑ 0 ↓ 0
2024-06-09 magnet Злобные маленькие письма / Wicked Little Letters (2023) BDRip-AVC от New-Team | P, A 2.18 GB ↑ 0 ↓ 1
2024-05-16 magnet Злобные маленькие письма / Wicked Little Letters (2023) BDRip 720p от DoMiNo & селезень | A | Сербин 4.18 GB ↑ 0 ↓ 0
2024-05-16 magnet Злобные маленькие письма / Wicked Little Letters (2023) BDRip-AVC от DoMiNo & селезень | A | Сербин 1.46 GB ↑ 0 ↓ 0
2024-05-16 magnet Злобные маленькие письма / Wicked Little Letters (2023) BDRip от New-Team | A | Сербин 1.46 GB ↑ 0 ↓ 0

Кто качает (только для создателя раздачи и модераторов): Локальные пиры отсутствуют

Комментарии


Зарегистрируйтесь чтобы добавить комментарий
Торрент клиент
byTorrent - программа для загрузки торрент-файлов.

Скачать byTorrent.exe (1,5 МБ)

Скачать byTorrent.zip (0,6 МБ)

Поддержи torrent.by
российских рублей
(300 российских рублей это 4$)

Обратная связь rss

End game ©