↑↓torrent.by
Поиск
Логин:  Регистрация
Пароль:

Годзилла и Конг: Новая империя / Godzilla x Kong: The New Empire (2024) WEB-DL 1080p от Jaskier | P

download Скачать торрент-файл   magnet Магнитная ссылка Размер: 8.11 GB Добавлен: 2024-05-16 11:00
Пиры будут получены из сети DHT
Последний сидер был замечен 2024-05-29 20:43
Информация о фильме Название: Годзилла и Конг: Новая империя Оригинальное название: Godzilla x Kong: The New Empire Год выхода: 2024 Жанр: фантастика, боевик Режиссер: Адам Вингард В ролях: Ребекка Холл, Брайан Тайри Генри, Дэн Стивенс, Кэйли Хоттл, Алекс Фернс, Чэнь Фала, Рэйчел Хаус, Рональд Смик, Чантелл Джемисон, Грег Хаттон О фильме: Два древних титана, Годзилла и Конг, сражаются в эпической битве, пока люди разгадывают их происхождение и связь с тайнами Острова черепа. Страна: США, Австралия Студия: Legendary Entertainment, Screen Queensland, Warner Bros. Продолжительность: 01:54:38 Перевод: Профессиональный (многоголосый закадровый) Jaskier Файл Кодек: MKV Качество: WEB-DL 1080p Видео: AVC, 1920x800(2.40:1), 23.976 fps, ~9060 kbps Звук: Аудио 1: Русский, AC-3, 48 kHz, 6 ch, 384 kbps | Jaskier Аудио 2: Английский, E-AC-3 JOC, 48 kHz, 6 ch, 448 kbps Субтитры: Русские (Forced, Full), Английские (Forced, Full, SDH) Семпл
[+] MediaInfo General Unique ID : 196496484512454816990910158788625167491 (0x93D3D8AA52E8E41E8DD5DBCC0DEBF483) Complete name : E:TorrentGodzilla.x.Kong.The.New.Empire.2024.1080p.AMZN.WEB-DL.DDP5.1.H.264-Jaskier.mkv Format : Matroska Format version : Version 4 File size : 8.11 GiB Duration : 1 h 54 min Overall bit rate : 10.1 Mb/s Frame rate : 23.976 FPS Encoded date : 2024-05-15 23:34:04 UTC Writing application : mkvmerge v6.6.0 ('The Edge Of The In Between') built on Dec 1 2013 17:55:00 Writing library : libebml v1.3.0 + libmatroska v1.4.1 Video ID : 1 Format : AVC Format/Info : Advanced Video Codec Format profile : High@L4 Format settings : CABAC / 4 Ref Frames Format settings, CABAC : Yes Format settings, Reference frames : 4 frames Codec ID : V_MPEG4/ISO/AVC Duration : 1 h 54 min Bit rate mode : Constant Bit rate : 9 095 kb/s Nominal bit rate : 10 000 kb/s Width : 1 920 pixels Height : 800 pixels Display aspect ratio : 2.40:1 Frame rate mode : Constant Frame rate : 23.976 (24000/1001) FPS Color space : YUV Chroma subsampling : 4:2:0 Bit depth : 8 bits Scan type : Progressive Bits/(Pixel*Frame) : 0.247 Stream size : 7.28 GiB (90%) Title : FLUX Language : English Default : Yes Forced : No Color range : Limited Color primaries : BT.709 Transfer characteristics : BT.709 Matrix coefficients : BT.709 Audio #1 ID : 2 Format : AC-3 Format/Info : Audio Coding 3 Commercial name : Dolby Digital Codec ID : A_AC3 Duration : 1 h 54 min Bit rate mode : Constant Bit rate : 384 kb/s Channel(s) : 6 channels Channel layout : L R C LFE Ls Rs Sampling rate : 48.0 kHz Frame rate : 31.250 FPS (1536 SPF) Compression mode : Lossy Stream size : 315 MiB (4%) Title : Jaskier Language : Russian Service kind : Complete Main Default : Yes Forced : No Audio #2 ID : 3 Format : E-AC-3 JOC Format/Info : Enhanced AC-3 with Joint Object Coding Commercial name : Dolby Digital Plus with Dolby Atmos Codec ID : A_EAC3 Duration : 1 h 54 min Bit rate mode : Constant Bit rate : 448 kb/s Channel(s) : 6 channels Channel layout : L R C LFE Ls Rs Sampling rate : 48.0 kHz Frame rate : 31.250 FPS (1536 SPF) Compression mode : Lossy Stream size : 367 MiB (4%) Title : Original Language : English Service kind : Complete Main Default : No Forced : No Complexity index : 16 Number of dynamic objects : 15 Bed channel count : 1 channel Bed channel configuration : LFE Text #1 ID : 4 Format : UTF-8 Codec ID : S_TEXT/UTF8 Codec ID/Info : UTF-8 Plain Text Title : Forced Language : Russian Default : No Forced : No Text #2 ID : 5 Format : UTF-8 Codec ID : S_TEXT/UTF8 Codec ID/Info : UTF-8 Plain Text Title : Full Language : Russian Default : No Forced : No Text #3 ID : 6 Format : UTF-8 Codec ID : S_TEXT/UTF8 Codec ID/Info : UTF-8 Plain Text Title : Forced Language : English Default : No Forced : Yes Text #4 ID : 7 Format : UTF-8 Codec ID : S_TEXT/UTF8 Codec ID/Info : UTF-8 Plain Text Title : Full Language : English Default : No Forced : No Text #5 ID : 8 Format : UTF-8 Codec ID : S_TEXT/UTF8 Codec ID/Info : UTF-8 Plain Text Title : SDH Language : English Default : No Forced : No
[+] Скриншот c названием фильма
[+] Скриншоты
Релиз от: Jaskier

Всего файлов в раздаче: 1 
Godzilla.x.Kong.The.New.Empire.2024.1080p.AMZN.WEB-DL.DDP5.1.H.264-Jaskier.mkv8.11 GB

Похожие раздачи по запросу - Годзилла
Сегодня magnet Годзилла и Конг: Новая империя / Ґодзілла та Конґ: Нова імперія / Godzilla x Kong: The New Empire (2024) BDRip 1080p | D | UKR 16.33 GB ↑ 0 ↓ 1
Сегодня magnet Годзилла и Конг: Новая империя / Godzilla x Kong: The New Empire (2024) BDRip 1080p от Generalfilm | D 11.45 GB ↑ 0 ↓ 7
2024-06-13 magnet Годзилла: Минус один / Gojira -1.0 / Godzilla: Minus One (2023) BDRip-AVC от DoMiNo & селезень | D | Red Head Sound 746.14 MB ↑ 0 ↓ 0
2024-06-13 magnet Годзилла: Минус один / Gojira -1.0 / Godzilla: Minus One (2023) BDRip от MegaPeer | D | Red Head Sound 2.18 GB ↑ 0 ↓ 2
2024-06-13 magnet Годзилла: Минус один / Gojira -1.0 / Godzilla: Minus One (2023) BDRip 1080p от Scarabey | D | Red Head Sound 9.73 GB ↑ 1 ↓ 9
2024-06-13 magnet Годзилла: Минус один / Gojira -1.0 / Godzilla: Minus One (2023) BDRip-AVC от DoMiNo & селезень | D | Red Head Sound 1.79 GB ↑ 0 ↓ 0
2024-06-13 magnet Годзилла: Минус один / Gojira -1.0 / Godzilla: Minus One (2023) BDRip 720p от DoMiNo & селезень | D | Red Head Sound 4.46 GB ↑ 0 ↓ 2

Кто качает (только для создателя раздачи и модераторов): Локальные пиры отсутствуют

Комментарии


Зарегистрируйтесь чтобы добавить комментарий
Торрент клиент
byTorrent - программа для загрузки торрент-файлов.

Скачать byTorrent.exe (1,5 МБ)

Скачать byTorrent.zip (0,6 МБ)

Поддержи torrent.by
российских рублей
(300 российских рублей это 4$)

Обратная связь rss

End game ©