↑↓torrent.by
Поиск
Логин:  Регистрация
Пароль:

Тимучин / Timuchin / Kung Fu Rookie (2023) WEB-DL 1080p

download Скачать торрент-файл   magnet Магнитная ссылка Размер: 2.32 GB Раздают: 0 Качают: 1 Добавлен: 2024-05-16 11:00
Пиры будут получены из сети DHT
Последний сидер был замечен 2024-05-19 21:38
Год выпуска: 2023 Производство: Казахстан / Eighty Eight Entertainment Жанр: боевик, комедия Режиссер: Аман Ергазиев Продюсер: Тимур Бактыбаев Актеры: Тимур Бактыбаев, Жанель Сергазина, Талгат Дуйсенов, Еркебулан Токтар, Куат Хамитов, Куандык Шакиржанов, Ержан Джаманкулов Описание: Молодой и амбициозный парень из села отправляется в город, чтобы осуществить свою мечту и поступить в Академию МВД. Его стремление стать полицейским известно всем вокруг. Однако, в районе, где живет его дядя, властвует банда, к тому же при поступлении в академию он встречает свою любовь. Теперь ему предстоит не только готовиться к экзаменам, но и вступить в противостояние с бандитами, чтобы защитить своих близких и свое будущее. Продолжительность: 01:18:17 Язык озвучки: Русский, Казахский Субтитры: Русские (на казахскую речь, отдельно), русские (Forced -hardsub), казахские (Forced - hardsub) Файл Качество: WEB-DL 1080p Формат: MKV Видео: AVC/H.264, 1920x804, ~3350 Kbps Аудио 1: AC3, 6 ch, 448 Kbps - Русский, Казахский Аудио 2: E-AC3, 6 ch, 448 Kbps - Русский, Казахский Релиз от: karfagen1975
[+] M/IGeneral Unique ID : 325689018659167850445284840623500441991 (0xF5056C6147BCEC33987601D09C6C3987) Complete name : Timuchin.2023.WEB-DL.1080p.mkv Format : Matroska Format version : Version 4 File size : 2.32 GiB Duration : 1 h 18 min Overall bit rate : 4 248 kb/s Encoded date : UTC 2024-05-14 08:26:16 Writing application : mkvmerge v75.0.0 ('Goliath') 64-bit Writing library : libebml v1.4.4 + libmatroska v1.7.1 Video ID : 1 Format : AVC Format/Info : Advanced Video Codec Format profile : High@L4 Format settings : CABAC / 5 Ref Frames Format settings, CABAC : Yes Format settings, Reference frames : 5 frames Codec ID : V_MPEG4/ISO/AVC Duration : 1 h 18 min Bit rate : 3 350 kb/s Width : 1 920 pixels Height : 804 pixels Display aspect ratio : 2.40:1 Frame rate mode : Constant Frame rate : 24.000 FPS Color space : YUV Chroma subsampling : 4:2:0 Bit depth : 8 bits Scan type : Progressive Bits/(Pixel*Frame) : 0.090 Stream size : 1.83 GiB (79%) Title : Тимучин (2023) WEB-DL 1080p Writing library : x264 core 157 Encoding settings : cabac=1 / ref=5 / deblock=1:0:0 / analyse=0x3:0x133 / me=umh / subme=10 / psy=1 / psy_rd=1.00:0.00 / mixed_ref=1 / me_range=24 / chroma_me=1 / trellis=2 / 8x8dct=1 / cqm=0 / deadzone=21,11 / fast_pskip=1 / chroma_qp_offset=-2 / threads=25 / lookahead_threads=4 / sliced_threads=0 / nr=0 / decimate=1 / interlaced=0 / bluray_compat=0 / stitchable=1 / constrained_intra=0 / bframes=8 / b_pyramid=2 / b_adapt=2 / b_bias=0 / direct=3 / weightb=1 / open_gop=0 / weightp=2 / keyint=250 / keyint_min=24 / scenecut=40 / intra_refresh=0 / rc_lookahead=96 / rc=crf / mbtree=1 / crf=19.0 / qcomp=0.60 / qpmin=0 / qpmax=69 / qpstep=4 / ip_ratio=1.40 / aq=1:1.00 Language : Kazakh Default : Yes Forced : No Color range : Limited Color primaries : BT.709 Transfer characteristics : BT.709 Matrix coefficients : BT.709 Audio #1 ID : 2 Format : AC-3 Format/Info : Audio Coding 3 Commercial name : Dolby Digital Codec ID : A_AC3 Duration : 1 h 18 min Bit rate mode : Constant Bit rate : 448 kb/s Channel(s) : 6 channels Channel layout : L R C LFE Ls Rs Sampling rate : 48.0 kHz Frame rate : 31.250 FPS (1536 SPF) Compression mode : Lossy Stream size : 251 MiB (11%) Language : Kazakh Service kind : Complete Main Default : No Forced : No Audio #2 ID : 3 Format : E-AC-3 Format/Info : Enhanced AC-3 Commercial name : Dolby Digital Plus Codec ID : A_EAC3 Duration : 1 h 18 min Bit rate mode : Constant Bit rate : 448 kb/s Channel(s) : 6 channels Channel layout : L R C LFE Ls Rs Sampling rate : 48.0 kHz Frame rate : 31.250 FPS (1536 SPF) Compression mode : Lossy Stream size : 251 MiB (11%) Language : Kazakh Service kind : Complete Main Default : No Forced : No Text ID : 4 Format : UTF-8 Codec ID : S_TEXT/UTF8 Codec ID/Info : UTF-8 Plain Text Duration : 1 h 12 min Bit rate : 42 b/s Count of elements : 562 Stream size : 22.6 KiB (0%) Language : Russian Default : No Forced : No
[+] Скриншоты

Всего файлов в раздаче: 1 
Timuchin.2023.WEB-DL.1080p.mkv2.32 GB

Комментарии


Зарегистрируйтесь чтобы добавить комментарий
Торрент клиент
byTorrent - программа для загрузки торрент-файлов.

Скачать byTorrent.exe (1,5 МБ)

Скачать byTorrent.zip (0,6 МБ)

Поддержи torrent.by
российских рублей
(300 российских рублей это 4$)

Обратная связь rss

End game ©