↑↓torrent.by
Поиск
Логин:  Регистрация
Пароль:

Линия Маннергейма / Mannerheim Line (1940) DVDRip-AVC

download Скачать торрент-файл   magnet Магнитная ссылка Размер: 1.23 GB Добавлен: 2024-05-16 17:00
Пиры будут получены из сети DHT
Последний сидер был замечен сегодня в 09:46
Информация о фильме Название: Линия Маннергейма Оригинальное название: Mannerheim Line Год выхода: 1940 Жанр: Документальный, военный, исторический Режиссер: Василий Беляев, Валерий Соловцов, Леонид Варламов, Николай Комаревцев В ролях: Документальные съёмки О фильме: Документальный фильм о боевых действиях Красной Армии и Краснознаменного Балтийского флота во время войны между СССР и Финляндией в период с 30 ноября 1939 года по 12 марта 1940 года. Кинодокументы, снятые в частях действующей Красной Армии и Краснознамённого Балтийского флота в боях с белофиннами. Фильм создавался как отчёт о преодолении высокотехнологичной обороны в суровых условиях сорокаградусной зимы, наглядно объясняющий главные причины этой войны: способность создания мощной войсковой группировки на расстоянии артиллерийского выстрела от Ленинграда, участие западных милитаристских держав в создании Линии Маннергейма. Демонстрируются карты глубоко эшелонированной обороны, раскрываются подробности вражеских укреплений, рассказывается об ожесточённом сопротивлении и об остроумных стратегических и тактических решениях. Это рип с американского DVD выпущенного International Historic Films и представляющий собой отреставрированную версию фильма с английской аудиодорожкой и субтитрами. Несмотря на присутствие в некоторых местах вшитых английских субтитров, качество на порядок выше чем у издания студии Крылья России. Страна: СССР Продолжительность: 01:14:12 Перевод: Не требуется Файл Кодек: h.264 Качество: DVDRip-AVC Видео: AVC, 700x478, 4:3, 29.970 кадр/сек, 1938 Кбит/сек Звук: Аудио: AC3, 48000Гц, 192 Кбит/сек, 2 канала Аудио 2: AC3, 48000Гц, 192 Кбит/сек, 2 канала, английская дорожка Субтитры: Присутствуют английские
[+] MediaInfo General Unique ID : 91489950323920830764410182829069987970 (0x44D452D07F9AE7D1029981B244DE7082) Complete name : Линия Маннергейма (1940).mkv Format : Matroska Format version : Version 4 File size : 1.23 GiB Duration : 1 h 14 min Overall bit rate : 2 369 kb/s Frame rate : 29.970 FPS Movie name : Линия Маннергейма Released date : 1940 Encoded date : 2024-04-22 20:21:16 UTC Writing application : HandBrake 1.6.1 2023012900 Writing library : Lavf59.27.100 ErrorDetectionType : Per level 1 DIRECTOR : Василий Беляев, Валерий Соловцов, Леонид Варламов, Николай Комаревцев GENRE : документальный, военный Video ID : 1 Format : AVC Format/Info : Advanced Video Codec Format profile : High@L3.1 Format settings : CABAC / 9 Ref Frames Format settings, CABAC : Yes Format settings, Reference frames : 9 frames Codec ID : V_MPEG4/ISO/AVC Duration : 1 h 14 min Bit rate : 1 938 kb/s Width : 700 pixels Height : 478 pixels Display aspect ratio : 4:3 Frame rate mode : Constant Frame rate : 29.970 (30000/1001) FPS Color space : YUV Chroma subsampling : 4:2:0 Bit depth : 8 bits Scan type : Progressive Bits/(Pixel*Frame) : 0.193 Stream size : 1.00 GiB (82%) Writing library : x264 core 164 r3095 baee400 Encoding settings : cabac=1 / ref=9 / deblock=1:-3:-3 / analyse=0x3:0x133 / me=umh / subme=9 / psy=1 / psy_rd=1,00:0,00 / mixed_ref=1 / me_range=24 / chroma_me=1 / trellis=2 / 8x8dct=1 / cqm=0 / deadzone=21,11 / fast_pskip=0 / chroma_qp_offset=-2 / threads=6 / lookahead_threads=1 / sliced_threads=0 / nr=0 / decimate=1 / interlaced=0 / bluray_compat=0 / constrained_intra=0 / bframes=9 / b_pyramid=2 / b_adapt=2 / b_bias=0 / direct=3 / weightb=1 / open_gop=0 / weightp=2 / keyint=300 / keyint_min=30 / scenecut=40 / intra_refresh=0 / rc_lookahead=60 / rc=crf / mbtree=1 / crf=17,0 / qcomp=0,00 / qpmin=0 / qpmax=69 / qpstep=4 / vbv_maxrate=17500 / vbv_bufsize=17500 / crf_max=0,0 / nal_hrd=none / filler=0 / ip_ratio=1,40 / aq=1:0,00 Default : Yes Forced : No Color range : Limited Color primaries : BT.601 NTSC Transfer characteristics : BT.601 Matrix coefficients : BT.601 DURATION : 01:14:12,881000000 Audio #1 ID : 2 Format : AC-3 Format/Info : Audio Coding 3 Commercial name : Dolby Digital Codec ID : A_AC3 Duration : 1 h 14 min Bit rate mode : Constant Bit rate : 192 kb/s Channel(s) : 2 channels Channel layout : L R Sampling rate : 48.0 kHz Frame rate : 31.250 FPS (1536 SPF) Compression mode : Lossy Stream size : 102 MiB (8%) Title : Stereo Language : Russian Service kind : Complete Main Default : Yes Forced : No DURATION : 01:14:12,896000000 Audio #2 ID : 3 Format : AC-3 Format/Info : Audio Coding 3 Commercial name : Dolby Digital Codec ID : A_AC3 Duration : 1 h 14 min Bit rate mode : Constant Bit rate : 192 kb/s Channel(s) : 2 channels Channel layout : L R Sampling rate : 48.0 kHz Frame rate : 31.250 FPS (1536 SPF) Compression mode : Lossy Stream size : 102 MiB (8%) Title : Stereo Language : English Service kind : Complete Main Default : No Forced : No DURATION : 01:14:12,896000000 Text ID : 4 Format : VobSub Codec ID : S_VOBSUB Codec ID/Info : Picture based subtitle format used on DVDs Language : English Default : No Forced : No DURATION : 01:14:04,873000000 Menu 00:00:00.000 : Chapter 1 00:15:45.478 : Chapter 2 00:37:24.743 : Chapter 3 00:55:59.356 : Chapter 4 01:13:27.904 : Chapter 5
Семпл
[+] Скриншоты

Всего файлов в раздаче: 1 
Линия Маннергейма (1940).mkv1.23 GB

Кто качает (только для создателя раздачи и модераторов): Локальные пиры отсутствуют

Комментарии


Зарегистрируйтесь чтобы добавить комментарий
Торрент клиент
byTorrent - программа для загрузки торрент-файлов.

Скачать byTorrent.exe (1,5 МБ)

Скачать byTorrent.zip (0,6 МБ)

Поддержи torrent.by
российских рублей
(300 российских рублей это 4$)

Обратная связь rss

End game ©