↑↓torrent.by
Поиск
Логин:  Регистрация
Пароль:

Злобные маленькие письма / Wicked Little Letters (2023) BDRip-AVC от DoMiNo & селезень | A | Сербин

download Скачать торрент-файл   magnet Магнитная ссылка Размер: 1.46 GB Добавлен: 2024-05-16 17:00
Пиры будут получены из сети DHT
Последний сидер был замечен вчера в 23:43
Информация о фильме Название: Злобные маленькие письма Оригинальное название: Wicked Little Letters Год выпуска: 2023 Жанр: комедия, драма, детектив, криминал, история Режиссер: Теа Шэррок / Thea Sharrock В ролях: Оливия Колман, Джесси Бакли, Тимоти Сполл, Хью Скиннер, Анджана Васан, Джемма Джонс, Лолли Адефоп, Эйлин Аткинс, Джейсон Уоткинс, Джоанна Скэнлан, Малачи Кирби, Сьюзи Фэйрфакс, Алиша Уэйр, Ричард Гулдинг. О фильме: Действие фильма разворачиваетсятся в 1920-е годы. Жители приморского городка Литлхэмптон однажды начинают получать скандальные письма, написанные в бранной и эксцентричной манере. Первой и главной подозреваемой в этом деле становится Роуз. Девушка обладает своенравным характером, к тому же рискует лишиться опеки над единственной дочерью. Чтобы преодолеть все неприятности, она активно помогает следствию, которое ведет местная представительница стражей правопорядка. Вместе женщины пробуют разобраться в непростом деле, найти и разоблачить подлинного преступника. Выпущено: Великобритания, США, Франция / Blueprint Pictures, Film Four Ltd. Продолжительность: 01:40:05 Перевод: Авторский (одноголосый, закадровый) | Ю. Сербин 18 + Субтитры: Русские (full), английские (Full, SDH) Файл Формат: Matroska Качество: BDRip-AVC Видео: 1024x554 at 24.000 fps, MPEG-4 AVC, ~1708 kbps Аудио: AC3, 6 ch, ~384 kbps - | Русский | Формат субтитров: softsub (SRT) ***Рип от: -=DoMiNo=-
[+] M/Ix264 : frame I:1484 Avg QP:15.07 size: 78357 x264 : frame P:30105 Avg QP:17.85 size: 20274 x264 : frame B:112549 Avg QP:19.48 size: 4932 x264 : consecutive B-frames: 4.1% 2.0% 4.8% 10.8% 12.9% 47.1% 7.1% 2.3% 1.9% 1.1% 1.5% 1.6% 1.4% 0.9% 0.6% General Unique ID : 39053758580477013519330150732913124086 (0x1D617AF58989095E75E1107A6C7B22F6) Complete name : I:Wicked.Little.Letters.2023.AVO.BDRip.x264.seleZen.mkv Format : Matroska Format version : Version 4 File size : 1.46 GiB Duration : 1 h 40 min Overall bit rate : 2 094 kb/s Frame rate : 24.000 FPS Movie name : Wicked.Little.Letters.2023.AVO.BDRip.x264.seleZen Encoded date : 2024-05-16 10:38:26 UTC Writing application : mkvmerge v84.0 ('Sleeper') 64-bit Writing library : libebml v1.4.5 + libmatroska v1.7.1 Cover : Yes Attachments : cover.jpg / small_cover.jpg Video ID : 1 Format : AVC Format/Info : Advanced Video Codec Format profile : High@L4.1 Format settings : CABAC / 14 Ref Frames Format settings, CABAC : Yes Format settings, Reference : 14 frames Codec ID : V_MPEG4/ISO/AVC Duration : 1 h 40 min Bit rate : 1 708 kb/s Width : 1 024 pixels Height : 554 pixels Display aspect ratio : 1.85:1 Frame rate mode : Constant Frame rate : 24.000 FPS Color space : YUV Chroma subsampling : 4:2:0 Bit depth : 8 bits Scan type : Progressive Bits/(Pixel*Frame) : 0.125 Stream size : 1.19 GiB (82%) Title : -=DoMiNo=- Writing library : x264 core 164 r3191 4613ac3 Encoding settings : cabac=1 / ref=14 / deblock=1:-2:-2 / analyse=0x3:0x133 / me=umh / subme=10 / psy=1 / psy_rd=1.05:0.05 / mixed_ref=1 / me_range=32 / chroma_me=1 / trellis=2 / 8x8dct=1 / cqm=0 / deadzone=21,11 / fast_pskip=0 / chroma_qp_offset=-3 / threads=17 / lookahead_threads=4 / sliced_threads=0 / nr=0 / decimate=0 / interlaced=0 / bluray_compat=0 / constrained_intra=0 / bframes=14 / b_pyramid=2 / b_adapt=2 / b_bias=0 / direct=3 / weightb=1 / open_gop=0 / weightp=2 / keyint=240 / keyint_min=24 / scenecut=40 / intra_refresh=0 / rc_lookahead=60 / rc=2pass / mbtree=0 / bitrate=1708 / ratetol=1.0 / qcomp=0.70 / qpmin=0 / qpmax=69 / qpstep=4 / cplxblur=20.0 / qblur=0.5 / vbv_maxrate=50000 / vbv_bufsize=62500 / nal_hrd=none / filler=0 / ip_ratio=1.24 / pb_ratio=1.30 / aq=3:0.80 Language : English Default : Yes Forced : No Color range : Limited Color primaries : BT.709 Transfer characteristics : BT.709 Matrix coefficients : BT.709 Audio ID : 2 Format : AC-3 Format/Info : Audio Coding 3 Commercial name : Dolby Digital Codec ID : A_AC3 Duration : 1 h 40 min Bit rate mode : Constant Bit rate : 384 kb/s Channel(s) : 6 channels Channel layout : L R C LFE Ls Rs Sampling rate : 48.0 kHz Frame rate : 31.250 FPS (1536 SPF) Compression mode : Lossy Stream size : 275 MiB (18%) Title : AVO -Сербин 18+ Language : Russian Service kind : Complete Main Default : Yes Forced : No Dialog Normalization : -31 dB cmixlev : -4.5 dB surmixlev : -6 dB dialnorm_Average : -31 dB dialnorm_Minimum : -31 dB dialnorm_Maximum : -31 dB Text #1 ID : 3 Format : UTF-8 Codec ID : S_TEXT/UTF8 Codec ID/Info : UTF-8 Plain Text Duration : 1 h 31 min Bit rate : 108 b/s Frame rate : 0.209 FPS Count of elements : 1154 Stream size : 73.3 KiB (0%) Title : Full Language : Russian Default : No Forced : No Text #2 ID : 4 Format : UTF-8 Codec ID : S_TEXT/UTF8 Codec ID/Info : UTF-8 Plain Text Duration : 1 h 31 min Bit rate : 68 b/s Frame rate : 0.212 FPS Count of elements : 1171 Stream size : 46.1 KiB (0%) Title : Full Language : English Default : No Forced : No Text #3 ID : 5 Format : UTF-8 Codec ID : S_TEXT/UTF8 Codec ID/Info : UTF-8 Plain Text Duration : 1 h 33 min Bit rate : 71 b/s Frame rate : 0.222 FPS Count of elements : 1242 Stream size : 48.5 KiB (0%) Title : SGH Default : No Forced : No Menu 00:00:00.000 : Chapter 01 00:05:04.042 : Chapter 02 00:12:02.667 : Chapter 03 00:21:43.792 : Chapter 04 00:30:34.917 : Chapter 05 00:39:07.708 : Chapter 06 00:48:42.083 : Chapter 07 00:56:13.125 : Chapter 08 01:04:24.833 : Chapter 09 01:13:31.042 : Chapter 10 01:22:39.583 : Chapter 11 01:32:18.250 : Chapter 12
Релиз: Присоединяйся к: Кликай на баннеры.

Всего файлов в раздаче: 1 
Wicked.Little.Letters.2023.AVO.BDRip.x264.seleZen.mkv1.46 GB

Похожие раздачи по запросу - Злобные
2024-05-16 magnet Злобные маленькие письма / Wicked Little Letters (2023) BDRip 720p от DoMiNo & селезень | A | Сербин 4.18 GB ↑ 0 ↓ 0
2024-05-16 magnet Злобные маленькие письма / Wicked Little Letters (2023) BDRip-AVC от New-Team | A | Сербин 2.18 GB ↑ 0 ↓ 0
2024-05-16 magnet Злобные маленькие письма / Wicked Little Letters (2023) BDRip от New-Team | A | Сербин 1.46 GB ↑ 0 ↓ 0
2024-04-21 magnet Злобные маленькие письма / Wicked Little Letters (2023) WEB-DL 720p от селезень | A | Сербин 3.11 GB ↑ 0 ↓ 0
2024-04-21 magnet Злобные маленькие письма / Wicked Little Letters (2023) WEB-DLRip от New-Team | A | Сербин 1.46 GB ↑ 0 ↓ 0
2024-04-21 magnet Злобные маленькие письма / Wicked Little Letters (2023) WEB-DL 1080p от New-Team | A | Сербин 7.09 GB ↑ 1 ↓ 0

Комментарии


Зарегистрируйтесь чтобы добавить комментарий
Торрент клиент
byTorrent - программа для загрузки торрент-файлов.

Скачать byTorrent.exe (1,5 МБ)

Скачать byTorrent.zip (0,6 МБ)

Поддержи torrent.by
российских рублей
(300 российских рублей это 4$)

Обратная связь rss

End game ©