↑↓torrent.by
Поиск
Логин:  Регистрация
Пароль:

По Фрейду / Freud's Last Session (2023) WEB-DL 1080p от ELEKTRI4KA | D

download Скачать торрент-файл   magnet Магнитная ссылка Размер: 4.45 GB Раздают: 0 Качают: 2 Добавлен: 2024-05-16 17:00
Пиры будут получены из сети DHT
Последний сидер был замечен вчера в 11:18
Информация о фильме Название: По Фрейду Оригинальное название: Freud's Last Session Год выхода: 2023 Жанр: драма Режиссер: Мэтт Браун В ролях: Энтони Хопкинс, Мэттью Гуд, Джоди Бальфур, Орла Брэйди, Стивен Кэмпбелл Мур, Лив Лиза Фрис, Рис Мэннион, Падрик Дилейни, Том Бишопс, Гари Бакли О фильме: Лондон, 3 сентября 1939 года. Два дня назад Германия осуществила вторжение в Польшу, и началась Вторая мировая война. На одном из своих последних сеансов основатель психоанализа Зигмунд Фрейд встречается с Клайвом С. Льюисом, будущим автором цикла повестей «Хроники Нарнии», чтобы поспорить о главной загадке мироздания. Выпущено: США, Великобритания, Ирландия / 14 Sunset, LB Entertainment, Last Session Productions Продолжительность: 01:41:04 Озвучивание: Дублированное | СиПиАй Филмз / CPI Films Файл Формат: MKV Качество: WEB-DL 1080p Видео: MPEG-4 AVC, 5000 Kb/s, 1920x804 Аудио: Russian: AC3, 640 Kb/s (6 ch) / E-AC3, 384 Kb/s (6 ch), English: E-AC3, 384 Kb/s (6 ch) Субтитры: Russian (Forced, Full) Дополнительно: Нет Релиз группы: Мы в Telegram:
[+] MediaInfo:Complete name : Po.Freydu.2023.WEB-DL.1080p.ELEKTRI4KA.mkv Format : Matroska Format version : Version 4 File size : 4.45 GiB Duration : 1 h 41 min Overall bit rate : 6 308 kb/s Movie name : Po.Freydu.2023.WEB-DL.1080p.ELEKTRI4KA. Encoded date : UTC 2024-05-16 09:13:54 Writing application : mkvmerge v8.3.0 ('Over the Horizon') 64bit Writing library : libebml v1.3.1 + libmatroska v1.4.2 Video ID : 1 Format : AVC Format/Info : Advanced Video Codec Format profile : High@L4 Format settings : CABAC / 3 Ref Frames Format settings, CABAC : Yes Format settings, Reference frames : 3 frames Codec ID : V_MPEG4/ISO/AVC Duration : 1 h 41 min Bit rate : 5 000 kb/s Width : 1 920 pixels Height : 804 pixels Display aspect ratio : 2.40:1 Frame rate mode : Constant Frame rate : 25.000 FPS Color space : YUV Chroma subsampling : 4:2:0 Bit depth : 8 bits Scan type : Progressive Bits/(Pixel*Frame) : 0.130 Stream size : 3.46 GiB (78%) Writing library : x264 core 164 r3095 baee400 Encoding settings : cabac=1 / ref=4 / deblock=1:-1:-1 / analyse=0x3:0x133 / me=umh / subme=9 / psy=1 / psy_rd=0.40:1.00 / mixed_ref=1 / me_range=24 / chroma_me=1 / trellis=0 / 8x8dct=1 / cqm=0 / deadzone=21,11 / fast_pskip=1 / chroma_qp_offset=-2 / threads=3 / lookahead_threads=1 / sliced_threads=0 / nr=0 / decimate=1 / interlaced=0 / bluray_compat=0 / stitchable=1 / constrained_intra=0 / bframes=8 / b_pyramid=1 / b_adapt=0 / b_bias=0 / direct=3 / weightb=1 / open_gop=0 / weightp=2 / keyint=75 / keyint_min=38 / scenecut=0 / intra_refresh=0 / rc_lookahead=40 / rc=2pass / mbtree=1 / bitrate=5000 / ratetol=1.0 / qcomp=0.80 / qpmin=1 / qpmax=69 / qpstep=4 / cplxblur=20.0 / qblur=0.5 / vbv_maxrate=7500 / vbv_bufsize=10000 / nal_hrd=none / filler=0 / ip_ratio=1.40 / aq=1:1.00 Default : Yes Forced : No Color range : Limited Color primaries : BT.709 Transfer characteristics : BT.709 Matrix coefficients : BT.709 Audio #1 ID : 2 Format : AC-3 Format/Info : Audio Coding 3 Commercial name : Dolby Digital Codec ID : A_AC3 Duration : 1 h 41 min Bit rate mode : Constant Bit rate : 640 kb/s Channel(s) : 6 channels Channel layout : L R C LFE Ls Rs Sampling rate : 48.0 kHz Frame rate : 31.250 FPS (1536 SPF) Compression mode : Lossy Stream size : 463 MiB (10%) Title : DUB AC3 (CPI Films) Language : Russian Service kind : Complete Main Default : Yes Forced : Yes Audio #2 ID : 3 Format : E-AC-3 Format/Info : Enhanced AC-3 Commercial name : Dolby Digital Plus Codec ID : A_EAC3 Duration : 1 h 41 min Bit rate mode : Constant Bit rate : 384 kb/s Channel(s) : 6 channels Channel layout : L R C LFE Ls Rs Sampling rate : 48.0 kHz Frame rate : 31.250 FPS (1536 SPF) Compression mode : Lossy Stream size : 278 MiB (6%) Title : DUB E-AC3 (CPI Films) Language : Russian Service kind : Complete Main Default : No Forced : No Audio #3 ID : 4 Format : E-AC-3 Format/Info : Enhanced AC-3 Commercial name : Dolby Digital Plus Codec ID : A_EAC3 Duration : 1 h 41 min Bit rate mode : Constant Bit rate : 384 kb/s Channel(s) : 6 channels Channel layout : L R C LFE Ls Rs Sampling rate : 48.0 kHz Frame rate : 31.250 FPS (1536 SPF) Compression mode : Lossy Stream size : 278 MiB (6%) Title : Original Language : English Service kind : Complete Main Default : No Forced : No Text #1 ID : 5 Format : UTF-8 Codec ID : S_TEXT/UTF8 Codec ID/Info : UTF-8 Plain Text Duration : 1 h 35 min Bit rate : 3 b/s Count of elements : 38 Stream size : 2.18 KiB (0%) Title : Forced Language : Russian Default : Yes Forced : Yes Text #2 ID : 6 Format : UTF-8 Codec ID : S_TEXT/UTF8 Codec ID/Info : UTF-8 Plain Text Duration : 1 h 35 min Bit rate : 104 b/s Count of elements : 1725 Stream size : 72.6 KiB (0%) Title : Full Language : Russian Default : No Forced : No
[+] Скриншоты

Всего файлов в раздаче: 1 
Po.Freydu.2023.WEB-DL.1080p.ELEKTRI4KA.mkv4.45 GB

Похожие раздачи по запросу - Фрейду
Сегодня magnet По Фрейду / Freud's Last Session (2023) WEB-DLRip-AVC | D 1.50 GB ↑ 0 ↓ 0
2024-05-16 magnet По Фрейду / Freud's Last Session (2023) WEB-DLRip от ELEKTRI4KA | D 1.46 GB ↑ 1 ↓ 1
2023-01-28 magnet Убийство по Фрейду / Венская кровь / Vienna Blood [S01-03] (2019-2023) HDRip, WEBRip | SDI Media 11.53 GB ↑ 0 ↓ 0

Кто качает (только для создателя раздачи и модераторов):
ПользовательIP:портОтдалПринялОстатокСидируетТоррент клиентОбновился
1 Аноним 131.161.140.178:36321 13.72 MB 3.03 GB 4.38 GB нет -qB4390- 07:39 2024-05-19
2 Аноним 215.153.139.79:44857 91.21 kB 3.63 GB 4.38 GB нет -qB4390- 07:40 2024-05-19

Комментарии


Зарегистрируйтесь чтобы добавить комментарий
Торрент клиент
byTorrent - программа для загрузки торрент-файлов.

Скачать byTorrent.exe (1,5 МБ)

Скачать byTorrent.zip (0,6 МБ)

Поддержи torrent.by
российских рублей
(300 российских рублей это 4$)

Обратная связь rss

End game ©