↑↓torrent.by
Поиск
Логин:  Регистрация
Пароль:

Тьма человеческая / Тьма человека / Darkness of Man (2024) WEB-DL 720p от селезень | P | TVShows

download Скачать торрент-файл   magnet Магнитная ссылка Размер: 3.62 GB Добавлен: il68k 2024-05-17 01:53
Пиры будут получены из сети DHT
Последний сидер был замечен сегодня в 16:26
Информация о фильме Название: Тьма человеческая / Тьма человека Оригинальное название: Darkness of Man Год выпуска: 2024 Выпущено: США / JCB Pictures, Robotic Donut, Sandaled Kid Productions, VMI Worldwide Жанр: боевик, триллер Режиссер: Джеймс Каллен Брэссак В ролях: Жан-Клод Ван Дамм, Эмерсон Мин, Кристанна Локен, Питер Ким, Стикки Фингаз, Спенсер Бреслин, Ли Джи-ён, Андрей Ивченко, Зак Уорд, Шеннен Доэрти, Чжин Хва Хванг, Синтия Ротрок, Уэстон Кейдж, Кристос Эндрюс, Шэйн Юн О фильме: Расселл Хэтч, агент Интерпола, неожиданно становится опекуном для маленького Джейдена, сына его покойной возлюбленной, которая работала его информатором и погибла во время полицейской операции. Хэтч дал торжественное обещание матери мальчика обеспечить безопасность её сына и его дедушки. Теперь, на фоне войны между преступными группировками в Лос-Анджелесе, он должен выполнить своё обещание, стоит это чего угодно, защищая их от надвигающейся угрозы. Продолжительность: 01:49:15 Перевод: Профессиональный (многоголосый закадровый) TVShows Субтитры: Английские (Forced, Full, SDH) Файл Формат: Matroska Качество: WEB-DL 720p | AMZN Видео: 1248x520 at 23.976 fps, MPEG-4 AVC, ~3716 kbps Аудио 1: AC3, 6 ch, ~384 kbps - | Русский | Аудио 2: E-AC3, 6 ch, ~640 kbps - | Английский | Формат субтитров: softsub (SRT)
[+] M/IGeneral Unique ID: 120215692259947502518783310956178804112 (0x5A70B33D1655A49B50E64575A8CD8D90) Complete name: S:Darkness.of.Man.2024.AMZN.WEB-DL.720p.x264.seleZen.mkv Format: Matroska Format version: Version 4 File size: 3.62 GiB Duration: 1 h 49 min Overall bit rate: 4 741 kb/s Frame rate: 23.976 FPS Movie name: Darkness.of.Man.2024.AMZN.WEB-DL.720p.x264.seleZen Encoded date: 2024-05-16 19:23:30 UTC Writing application: mkvmerge v84.0 ('Sleeper') 64-bit Writing library: libebml v1.4.5 + libmatroska v1.7.1 Cover: Yes Attachments: cover.jpg / small_cover.jpg Video ID: 1 Format: AVC Format/Info: Advanced Video Codec Format profile: High@L3.1 Format settings: CABAC / 4 Ref Frames Format settings, CABAC: Yes Format settings, Reference: 4 frames Codec ID: V_MPEG4/ISO/AVC Duration: 1 h 49 min Bit rate mode: Constant Bit rate: 3 716 kb/s Nominal bit rate: 4 000 kb/s Width: 1 248 pixels Height: 520 pixels Display aspect ratio: 2.40:1 Frame rate mode: Constant Frame rate: 23.976 (24000/1001) FPS Color space: YUV Chroma subsampling: 4:2:0 Bit depth: 8 bits Scan type: Progressive Bits/(Pixel*Frame): 0.239 Stream size: 2.84 GiB (78%) Title: -=DoMiNo=- Language: English Default: Yes Forced: No Color range: Limited Color primaries: BT.709 Transfer characteristics: BT.709 Matrix coefficients: BT.709 Audio #1 ID: 2 Format: AC-3 Format/Info: Audio Coding 3 Commercial name: Dolby Digital Codec ID: A_AC3 Duration: 1 h 48 min Bit rate mode: Constant Bit rate: 384 kb/s Channel(s): 6 channels Channel layout: L R C LFE Ls Rs Sampling rate: 48.0 kHz Frame rate: 31.250 FPS (1536 SPF) Compression mode: Lossy Stream size: 299 MiB (8%) Title: MVO -TVShows Language: Russian Service kind: Complete Main Default: Yes Forced: No Dialog Normalization: -31 dB cmixlev: -4.5 dB surmixlev: -6 dB dialnorm_Average: -31 dB dialnorm_Minimum: -31 dB dialnorm_Maximum: -31 dB Audio #2 ID: 3 Format: E-AC-3 Format/Info: Enhanced AC-3 Commercial name: Dolby Digital Plus Codec ID: A_EAC3 Duration: 1 h 49 min Bit rate mode: Constant Bit rate: 640 kb/s Channel(s): 6 channels Channel layout: L R C LFE Ls Rs Sampling rate: 48.0 kHz Frame rate: 31.250 FPS (1536 SPF) Compression mode: Lossy Stream size: 500 MiB (13%) Title: English Language: English Service kind: Complete Main Default: No Forced: No Dialog Normalization: -31 dB compr: -0.28 dB dialnorm_Average: -31 dB dialnorm_Minimum: -31 dB dialnorm_Maximum: -31 dB Text #1 ID: 4 Format: UTF-8 Codec ID: S_TEXT/UTF8 Codec ID/Info: UTF-8 Plain Text Duration: 1 h 7 min Bit rate: 1 b/s Frame rate: 0.012 FPS Count of elements: 49 Stream size: 973 Bytes (0%) Title: English (Forced) Language: English Default: No Forced: No Text #2 ID: 5 Format: UTF-8 Codec ID: S_TEXT/UTF8 Codec ID/Info: UTF-8 Plain Text Duration: 1 h 44 min Bit rate: 42 b/s Frame rate: 0.167 FPS Count of elements: 1043 Stream size: 32.7 KiB (0%) Title: English (Full) Language: English Default: No Forced: No Text #3 ID: 6 Format: UTF-8 Codec ID: S_TEXT/UTF8 Codec ID/Info: UTF-8 Plain Text Duration: 1 h 48 min Bit rate: 57 b/s Frame rate: 0.226 FPS Count of elements: 1473 Stream size: 46.0 KiB (0%) Title: English (SDH) Default: No Forced: No Menu 00:00:00.000: en:Chapter 01 00:05:50.000: en:Chapter 02 00:11:40.000: en:Chapter 03 00:17:30.000: en:Chapter 04 00:23:20.000: en:Chapter 05 00:29:10.000: en:Chapter 06 00:35:00.000: en:Chapter 07 00:40:50.000: en:Chapter 08 00:46:40.000: en:Chapter 09 00:52:30.000: en:Chapter 10 00:58:20.000: en:Chapter 11 01:04:10.000: en:Chapter 12 01:10:00.000: en:Chapter 13 01:15:50.000: en:Chapter 14 01:21:40.000: en:Chapter 15 01:27:30.000: en:Chapter 16 01:33:20.000: en:Chapter 17 01:39:10.000: en:Chapter 18 01:45:00.000: en:Chapter 19

Всего файлов в раздаче: 1 
Darkness.of.Man.2024.AMZN.WEB-DL.720p.x264.seleZen.mkv3.62 GB

Похожие раздачи по запросу - Тьма
2024-05-17 magnet Обитель зла: Бесконечная тьма / Resident Evil: Infinite Darkness [S01] (2021) WEB-DLRip-AVC | КПК | Jaskier 554.81 MB ↑ 0 ↓ 0
2024-05-17 magnet Тьма человеческая / Тьма человека / Darkness of Man (2024) WEB-DL 1080p от New-Team | P | TVShows 7.82 GB ↑ 0 ↓ 2
2024-05-17 magnet Тьма человеческая / Тьма человека / Darkness of Man (2024) WEB-DLRip от New-Team | P | TVShows 1.46 GB ↑ 0 ↓ 2
2024-05-10 magnet Тьма человеческая / Тьма человека / Darkness of Man (2024) WEB-DLRip от JNS82 | L 1.46 GB ↑ 0 ↓ 0
2024-05-10 magnet Тьма человеческая / Тьма человека / Darkness of Man (2024) WEB-DL 1080p от JNS82 | L 1К7.68 GB ↑ 0 ↓ 0
2024-04-23 magnet Тьма играет в куклы / Кукольная анимация / Stopmotion (2023) WEB-DLRip от New-Team | P2 | ViruseProject 1.46 GB ↑ 0 ↓ 0
2024-04-22 magnet Кукольная анимация / Тьма играет в куклы / Stopmotion (2023) WEB-DL 1080p | ViruseProject 5.23 GB ↑ 0 ↓ 0

Комментарии


Зарегистрируйтесь чтобы добавить комментарий
Торрент клиент
byTorrent - программа для загрузки торрент-файлов.

Скачать byTorrent.exe (1,5 МБ)

Скачать byTorrent.zip (0,6 МБ)

Поддержи torrent.by
российских рублей
(300 российских рублей это 4$)

Обратная связь rss

End game ©