↑↓torrent.by
Поиск
Логин:  Регистрация
Пароль:

Битва в проливе Норян / Noryang: jukeumui bada / Noryang: Deadly Sea (2023) BDRip от New-Team | D

download Скачать торрент-файл   magnet Магнитная ссылка Размер: 2.18 GB Добавлен: 2024-05-17 05:00
Пиры будут получены из сети DHT
Последний сидер был замечен 2024-05-25 12:43
Битва в проливе Норян / Noryang: jukeumui bada / Noryang: Deadly Sea Год выпуска: 2023 Выпущено: Южная Корея, Acemaker Movie Works, Big Stone Pictures, Lotte Entertainment Жанр: военный, биография, боевик, история Режиссер: Ким Хан-мин / Kim Han-min В ролях: Ким Юн-сок, Чон Джэ-ён, Пэк Юн-щик, Хо Джун-хо, Лим Иль-гю, Чон Ун-джон, Ли Му-сэн, Чу Сок-тхэ, Ким Джун-хи, Ан Сон-бон О фильме: История о морской битве в проливе Норян 16 декабря 1598 года, последней битвы Имджинской войны. Корейский флот из 150 кораблей под предводительством адмирала Ли Сунсина противостоит 500 судам японских агрессоров. Продолжительность: 02:32:48 Перевод: Профессиональный (дублированный) | Кипарис Субтитры: русские (forced), Раздача от: Автор релиза: JNS82. Формат: AVI Качество: BDRip | Noryang Deadly Sea 2023 1080p Blu-ray Remux AVC DTS-HD MA 5.1-HDT Видео: 720x304 (2.35:1), 23.976 fps, XviD MPEG-4 ~ 1648 kbps avg, 0.314 bit/pixel, build 73 Аудио: 48 kHz, AC3 Dolby Digital, 3/2 (L,C,R,l,r) + LFE ch, ~ 384 kbps | RUS |
[+] MediaInfoОбщее Полное имя : D:TorrentsNoryang.Deadly.Sea.2023.BDRip_от New-Team_by_JNS82Noryang.Deadly.Sea.2023.BDRip_от New-Team_by_JNS82.avi Формат : AVI Формат/Информация : Audio Video Interleave Профиль формата : OpenDML Размер файла : 2,18 Гбайт Продолжительность : 2 ч. 32 м. Общий поток : 2 043 Кбит/сек Программа кодирования : VirtualDubMod 1.5.10.2 (build 2540/release) Библиотека кодирования : VirtualDubMod build 2540/release Видео Идентификатор : 0 Формат : MPEG-4 Visual Профиль формата : Advanced Simple@L5 Настройки формата : BVOP1 / Custom Matrix Параметр BVOP формата : 1 Параметр QPel формата : Нет Параметр GMC формата : Без точки перехода Параметр матрицы формата : Выборочная Идентификатор кодека : XVID Идентификатор кодека/Подсказка : XviD Продолжительность : 2 ч. 32 м. Битрейт : 1 648 Кбит/сек Ширина : 720 пикселей Высота : 304 пикселя Соотношение сторон : 2,35:1 Частота кадров : 24,000 кадра/сек Цветовое пространство : YUV Субдискретизация насыщенности : 4:2:0 Битовая глубина : 8 бит Тип развёртки : Прогрессивная Метод сжатия : С потерями Бит/(Пиксели*Кадры) : 0.314 Размер потока : 1,76 Гбайт (81%) Библиотека кодирования : XviD 73 Аудио Идентификатор : 1 Формат : AC-3 Формат/Информация : Audio Coding 3 Коммерческое название : Dolby Digital Идентификатор кодека : 2000 Продолжительность : 2 ч. 32 м. Вид битрейта : Постоянный Битрейт : 384 Кбит/сек Каналы : 6 каналов Channel layout : L R C LFE Ls Rs Частота : 48,0 КГц Частота кадров : 31,250 кадров/сек (1536 SPF) Метод сжатия : С потерями Размер потока : 419 Мбайт (19%) Выравнивание : Разделение по промежуткам Продолжительность промежутка : 42 мс. (1,00 видеокадр) Время предзагрузки промежутка : 500 мс. Service kind : Complete Main

Всего файлов в раздаче: 2 
Noryang.Deadly.Sea.2023.BDRip_от New-Team_by_JNS82.avi2.18 GB
Noryang.Deadly.Sea.2023.BDRip_от New-Team_by_JNS82_[rus].srt3.18 kB

Похожие раздачи по запросу - Битва
2024-06-17 magnet Новая Битва экстрасенсов [24х01-13] (2024) WEBRip 720p от Files-x 17.53 GB ↑ 0 ↓ 0
2024-06-10 magnet Новая Битва экстрасенсов [24х01-12] (2024) WEBRip 1080p от Files-x 35.90 GB ↑ 0 ↓ 0
2024-06-10 magnet Новая Битва экстрасенсов [24х01-12] (2024) WEBRip 720p от Files-x 15.84 GB ↑ 0 ↓ 0
2024-06-03 magnet Новая Битва экстрасенсов [24х01-11] (2024) WEBRip 720p от Files-x 14.37 GB ↑ 0 ↓ 0
2024-06-03 magnet Новая Битва экстрасенсов [24х01-11] (2024) WEBRip от Files-x 13.40 GB ↑ 0 ↓ 0
2024-06-01 magnet Павел Вяч - Битва за Порог. Монах 1. За порог (2024) МР3 320.22 MB ↑ 0 ↓ 0
2024-05-27 magnet Новая Битва экстрасенсов [24х01-10] (2024) WEBRip от Files-x 12.24 GB ↑ 0 ↓ 0

Кто качает (только для создателя раздачи и модераторов): Локальные пиры отсутствуют

Комментарии


Зарегистрируйтесь чтобы добавить комментарий
Торрент клиент
byTorrent - программа для загрузки торрент-файлов.

Скачать byTorrent.exe (1,5 МБ)

Скачать byTorrent.zip (0,6 МБ)

Поддержи torrent.by
российских рублей
(300 российских рублей это 4$)

Обратная связь rss

End game ©