↑↓torrent.by
Поиск
Логин:  Регистрация
Пароль:

Slash - Orgy of the Damned [24Bit, Hi-Res] (2024) FLAC

download Скачать торрент-файл   magnet Магнитная ссылка Размер: 1.40 GB Добавлен: 2024-05-17 05:00
Пиры будут получены из сети DHT
Последний сидер был замечен 2024-05-18 14:31
Slash - Orgy of the Damned (2024) Жанр: Blues-Rock Издание: Gibson Records Источник: ссылка Продолжительность: 01:09:45 Кодек: FLAC 24/96 Битрейт: Lossless|WEB-DL Тип рипа: tracks Треклист: 01. The Pusher (7:08) 02. Crossroads (5:35) 03. Hoochie Coochie Man (6:43) 04. Oh Well (4:34) 05. Key to the Highway (5:09) 06. Awful Dream (5:32) 07. Born Under a Bad Sign (5:01) 08. Papa Was a Rolling Stone (7:52) 09. Killing Floor (4:19) 10. Living for the City (6:52) 11. Stormy Monday (7:58) 12. Metal Chestnut (3:02)
[+] Отчёт DR: ------------------------------------------------------------------------------- Analyzed: Slash / Orgy of the Damned -------------------------------------------------------------------------------- DR Peak RMS Duration Track -------------------------------------------------------------------------------- DR10 -0.10 dB -11.05 dB 7:08 01-The Pusher DR9 -0.10 dB -10.62 dB 5:35 02-Crossroads DR9 -0.10 dB -10.07 dB 6:43 03-Hoochie Coochie Man DR9 -0.10 dB -10.56 dB 4:34 04-Oh Well DR8 -0.10 dB -9.24 dB 5:09 05-Key to the Highway DR12 -0.10 dB -13.45 dB 5:32 06-Awful Dream DR10 -0.10 dB -10.28 dB 5:01 07-Born Under a Bad Sign DR9 -0.10 dB -10.74 dB 7:52 08-Papa Was a Rolling Stone DR9 -0.10 dB -9.74 dB 4:19 09-Killing Floor DR9 -0.10 dB -9.85 dB 6:52 10-Living for the City DR9 -0.10 dB -11.24 dB 7:58 11-Stormy Monday DR9 -0.10 dB -11.46 dB 3:02 12-Metal Chestnut -------------------------------------------------------------------------------- Number of tracks: 12 Official DR value: DR9 Samplerate: 96000 Hz Channels: 2 Bits per sample: 24 Bitrate: 2594 kbps Codec: FLAC ================================================================================

Всего файлов в раздаче: 13 
01 The Pusher.flac145.06 MB
02 Crossroads.flac116.83 MB
03 Hoochie Coochie Man.flac139.52 MB
04 Oh Well.flac95.70 MB
05 Key to the Highway.flac109.92 MB
06 Awful Dream.flac106.91 MB
07 Born Under a Bad Sign.flac105.51 MB
08 Papa Was a Rolling Stone.flac164.73 MB
09 Killing Floor.flac88.23 MB
10 Living for the City.flac142.62 MB
Показать все файлы

Похожие раздачи по запросу - Slash
2024-05-18 magnet Slash - Orgy of the Damned (2024) FLAC 456.36 MB ↑ 0 ↓ 0
2024-05-17 magnet Slash - Orgy of the Damned (2024) MP3 163.59 MB ↑ 0 ↓ 0

Комментарии


Зарегистрируйтесь чтобы добавить комментарий
Торрент клиент
byTorrent - программа для загрузки торрент-файлов.

Скачать byTorrent.exe (1,5 МБ)

Скачать byTorrent.zip (0,6 МБ)

Поддержи torrent.by
российских рублей
(300 российских рублей это 4$)

Обратная связь rss

End game ©