↑↓torrent.by
Поиск
Логин:  Регистрация
Пароль:

Ангел мести / Avenging Angelo (2002) DVDRip-AVC от k.e.n & NNMClub | D, P, A

download Скачать торрент-файл   magnet Магнитная ссылка Размер: 2.93 GB Добавлен: 2024-05-17 05:00
Пиры будут получены из сети DHT
Последний сидер был замечен 2024-05-17 05:00
Производство: США, Франция, Швейцария / Dante Entertainment, Quinta Жанр: Комедия, Криминал, Боевик, Мелодрама Режиссер: Мартин Бёрк Актеры: Сильвестр Сталлоне, Мэдлин Стоу, Энтони Куинн, Рауль Бова, Лори Энн Олтер, Кэрин Моффэт, Джема Зампронья, Гарри Ван Горкум, Билли Гарделл, Джордж Тулиатос. Анджело Селеста, Эзра Перлман Описание: Красивая и богатая Дженнифер Баррэтт к своему ужасу узнаёт, что на самом деле она — дочь недавно убитого главаря мафии Анджело Аллигьери. Теперь ей достались в наследство его верный телохранитель Фрэнки и уйма мрачных типов, мечтающих сквитаться с родней своего извечного врага. Чтя клятву, данную боссу, бесстрашный Фрэнки незримо защищает Дженнифер от наемных головорезов, не предполагая, что знойная красавица уже придумывает хитроумный план мести убийцам ее отца... Релиз от: K.E.N (NNM-CLUB) Продолжительность: 01:35:28 Качество видео: DVDRip-AVC Перевод: Дублированный, профессиональный многоголосый, авторский Язык субтитров: Русский, английский Вид субтитров: Вшитые отключаемые Видео: AVC, 1024x428 (2.35:1), 25.000 fps, 2 809 Kbps (0.256 bit/pixel) Аудио #1: AC-3, 48.0 KHz, 6 ch, 448 Kbps, CBR (Russian) - дубляж Аудио #2: AC-3, 48.0 KHz, 2 ch, 192 Kbps, CBR (Russian) - многоголосый (Инис) Аудио #3: AC-3, 48.0 KHz, 2 ch, 192 Kbps, CBR (Russian) - многоголосый Аудио #4: AC-3, 48.0 KHz, 2 ch, 192 Kbps, CBR (Russian) - авторский С.Визгунов Аудио #5: AC-3, 48.0 KHz, 2 ch, 192 Kbps, CBR (Russian) - авторский Л.Володарский Аудио #6: AC-3, 48.0 KHz, 6 ch, 384 Kbps, CBR (English) - оригинал Скриншоты:
[+] Mediainfo: Формат : Matroska Версия формата : Version 2 Размер файла : 2,93 Гбайт Продолжительность : 1 ч. 35 м. Общий поток : 4398 Кбит/сек Дата кодирования : UTC 2016-04-30 10:13:53 Программа кодирования : mkvmerge v5.3.0 ('I could have danced') built on Feb 9 2012 10:38:07 Библиотека кодирования : libebml v1.2.3 + libmatroska v1.3.0 Attachment : Yes Видео Идентификатор : 1 Формат : AVC Формат/Информация : Advanced Video Codec Профиль формата : High@L4.1 Параметр CABAC формата : Да Параметр ReFrames формата : 10 кадров Идентификатор кодека : V_MPEG4/ISO/AVC Продолжительность : 1 ч. 35 м. Битрейт : 2809 Кбит/сек Ширина : 1024 пикселя Высота : 428 пикселей Соотношение сторон : 2,40:1 Режим частоты кадров : Постоянный Частота кадров : 25,000 кадров/сек Цветовое пространство : YUV Субдискретизация насыщенности : 4:2:0 Битовая глубина : 8 бит Тип развёртки : Прогрессивная Бит/(Пиксели*Кадры) : 0.256 Размер потока : 1,81 Гбайт (62%) Библиотека кодирования : x264 core 146 r2538 121396c Настройки программы : cabac=1 / ref=10 / deblock=1:-3:-3 / analyse=0x3:0x133 / me=umh / subme=11 / psy=1 / psy_rd=1.00:0.10 / mixed_ref=1 / me_range=32 / chroma_me=1 / trellis=2 / 8x8dct=1 / cqm=0 / deadzone=21,11 / fast_pskip=0 / chroma_qp_offset=-3 / threads=12 / lookahead_threads=2 / sliced_threads=0 / nr=0 / decimate=0 / interlaced=0 / bluray_compat=0 / constrained_intra=0 / bframes=8 / b_pyramid=2 / b_adapt=2 / b_bias=0 / direct=3 / weightb=1 / open_gop=0 / weightp=2 / keyint=250 / keyint_min=25 / scenecut=40 / intra_refresh=0 / rc=2pass / mbtree=0 / bitrate=2809 / ratetol=1.0 / qcomp=0.60 / qpmin=0 / qpmax=69 / qpstep=4 / cplxblur=20.0 / qblur=0.5 / ip_ratio=1.40 / pb_ratio=1.30 / aq=2:0.70 Default : Да Forced : Нет Аудио #1 Идентификатор : 2 Формат : AC-3 Формат/Информация : Audio Coding 3 Расширение режима : CM (complete main) Параметр Endianness формата : Big Идентификатор кодека : A_AC3 Продолжительность : 1 ч. 35 м. Вид битрейта : Постоянный Битрейт : 448 Кбит/сек Каналы : 6 каналов Расположение каналов : Front: L C R, Side: L R, LFE Частота : 48,0 КГц Битовая глубина : 16 бит Метод сжатия : С потерями Размер потока : 306 Мбайт (10%) Заголовок : Дублированный Язык : Russian Default : Да Forced : Нет Аудио #2 Идентификатор : 3 Формат : AC-3 Формат/Информация : Audio Coding 3 Расширение режима : CM (complete main) Параметр Endianness формата : Big Идентификатор кодека : A_AC3 Продолжительность : 1 ч. 35 м. Вид битрейта : Постоянный Битрейт : 192 Кбит/сек Каналы : 2 канала Расположение каналов : Front: L R Частота : 48,0 КГц Битовая глубина : 16 бит Метод сжатия : С потерями Размер потока : 131 Мбайт (4%) Заголовок : Проф.многоголосый (Инис) Язык : Russian Default : Нет Forced : Нет Аудио #3 Идентификатор : 4 Формат : AC-3 Формат/Информация : Audio Coding 3 Расширение режима : CM (complete main) Параметр Endianness формата : Big Идентификатор кодека : A_AC3 Продолжительность : 1 ч. 35 м. Вид битрейта : Постоянный Битрейт : 192 Кбит/сек Каналы : 2 канала Расположение каналов : Front: L R Частота : 48,0 КГц Битовая глубина : 16 бит Метод сжатия : С потерями Размер потока : 131 Мбайт (4%) Заголовок : Проф.многоголосый Язык : Russian Default : Нет Forced : Нет Аудио #4 Идентификатор : 5 Формат : AC-3 Формат/Информация : Audio Coding 3 Расширение режима : CM (complete main) Параметр Endianness формата : Big Идентификатор кодека : A_AC3 Продолжительность : 1 ч. 35 м. Вид битрейта : Постоянный Битрейт : 192 Кбит/сек Каналы : 2 канала Расположение каналов : Front: L R Частота : 48,0 КГц Битовая глубина : 16 бит Метод сжатия : С потерями Размер потока : 131 Мбайт (4%) Заголовок : Авторский С.Визгунов Язык : Russian Default : Нет Forced : Нет Аудио #5 Идентификатор : 6 Формат : AC-3 Формат/Информация : Audio Coding 3 Расширение режима : CM (complete main) Параметр Endianness формата : Big Идентификатор кодека : A_AC3 Продолжительность : 1 ч. 35 м. Вид битрейта : Постоянный Битрейт : 192 Кбит/сек Каналы : 2 канала Расположение каналов : Front: L R Частота : 48,0 КГц Битовая глубина : 16 бит Метод сжатия : С потерями Размер потока : 131 Мбайт (4%) Заголовок : Авторский Л.Володарский Язык : Russian Default : Нет Forced : Нет Аудио #6 Идентификатор : 7 Формат : AC-3 Формат/Информация : Audio Coding 3 Расширение режима : CM (complete main) Параметр Endianness формата : Big Идентификатор кодека : A_AC3 Продолжительность : 1 ч. 35 м. Вид битрейта : Постоянный Битрейт : 384 Кбит/сек Каналы : 6 каналов Расположение каналов : Front: L C R, Side: L R, LFE Частота : 48,0 КГц Битовая глубина : 16 бит Метод сжатия : С потерями Размер потока : 262 Мбайт (9%) Заголовок : оригинал Язык : English Default : Нет Forced : Нет Текст #1 Идентификатор : 8 Формат : UTF-8 Идентификатор кодека : S_TEXT/UTF8 Идентификатор кодека/Информация : UTF-8 Plain Text Язык : Russian Default : Нет Forced : Нет Текст #2 Идентификатор : 9 Формат : UTF-8 Идентификатор кодека : S_TEXT/UTF8 Идентификатор кодека/Информация : UTF-8 Plain Text Язык : English Default : Нет Forced : Нет
[+] log x264 x264 : profile High, level 4.1 x264 : frame I:1315 Avg QP:13.78 size: 57834 PSNR Mean Y:50.48 U:53.76 V:54.01 Avg:51.18 Global:50.60 x264 : frame P:29984 Avg QP:16.42 size: 26379 PSNR Mean Y:48.43 U:53.91 V:54.21 Avg:49.16 Global:48.35 x264 : frame B:111911 Avg QP:18.39 size: 10227 PSNR Mean Y:47.33 U:51.70 V:52.10 Avg:48.07 Global:47.22 x264 : consecutive B-frames: 1.7% 2.6% 8.3% 15.4% 20.9% 35.3% 11.0% 2.9% 1.9%

Всего файлов в раздаче: 1 
Ангел мести. 2002 (С.Сталлоне, М.Стоу).nnmclub.mkv2.93 GB

Похожие раздачи по запросу - Ангел
2024-05-18 magnet Алита: Боевой ангел / Alita: Battle Angel (2019) HDRip-AVC | КПК | D | Open Matte 700.30 MB ↑ 0 ↓ 0
2024-05-17 magnet Отомстить за Анджело / Ангел мести / Avenging Angelo (2002) DVDRip | D 1.46 GB ↑ 0 ↓ 0
2024-05-17 magnet Ангел мести / Avenging Angelo (2002) DVDRip-AVC от ExKinoRay | D 746.66 MB ↑ 0 ↓ 0
2024-04-10 magnet Ангел-А / Angel-A (2005) BDRip 720p от msltel | D, A, L1 3.29 GB ↑ 1 ↓ 0

Комментарии


Зарегистрируйтесь чтобы добавить комментарий
Торрент клиент
byTorrent - программа для загрузки торрент-файлов.

Скачать byTorrent.exe (1,5 МБ)

Скачать byTorrent.zip (0,6 МБ)

Поддержи torrent.by
российских рублей
(300 российских рублей это 4$)

Обратная связь rss

End game ©