↑↓torrent.by
Поиск
Логин:  Регистрация
Пароль:

Тьма человеческая / Тьма человека / Darkness of Man (2024) WEB-DLRip от New-Team | P | TVShows

download Скачать торрент-файл   magnet Магнитная ссылка Размер: 1.46 GB Добавлен: 2024-05-17 05:00
Пиры будут получены из сети DHT
Последний сидер был замечен 2024-06-02 12:25
Тьма человеческая / Тьма человека / Darkness of Man Год выпуска: 2024 Выпущено: США / JCB Pictures, Robotic Donut, Sandaled Kid Productions, VMI Worldwide Жанр: боевик, триллер Режиссер: Джеймс Каллен Брэссак / James Cullen Bressack В ролях: Жан-Клод Ван Дамм, Эмерсон Мин, Кристанна Локен, Питер Ким, Стикки Фингаз, Спенсер Бреслин, Ли Джи-ён, Андрей Ивченко, Зак Уорд, Шеннен Доэрти, Чжин Хва Хванг, Синтия Ротрок, Уэстон Кейдж, Кристос Эндрюс, Шэйн Юн О фильме: Расселл Хэтч, агент Интерпола, неожиданно становится опекуном для маленького Джейдена, сына его покойной возлюбленной, которая работала его информатором и погибла во время полицейской операции. Хэтч дал торжественное обещание матери мальчика обеспечить безопасность её сына и его дедушки. Теперь, на фоне войны между преступными группировками в Лос-Анджелесе, он должен выполнить своё обещание, стоит это чего угодно, защищая их от надвигающейся угрозы. Продолжительность: 01:48:38 Перевод: Профессиональный (многоголосый, закадровый) | TVShows Субтитры: нет. Раздача от: Автор релиза: JNS82. Формат: AVI Качество: WEB-DLRip Видео: 720x304 (2.35:1), 23.976 fps, XviD MPEG-4 ~ 1531 kbps avg, 0.292 bit/pixel, build 73 Аудио: 48 kHz, AC3 Dolby Digital, 3/2 (L,C,R,l,r) + LFE ch, ~ 384 kbps | RUS |
[+] MediaInfoОбщее Полное имя : D:TorrentsDarkness.of.Man.2024.WEB-DLRip_от New-Team_by_JNS82.avi Формат : AVI Формат/Информация : Audio Video Interleave Размер файла : 1,46 Гбайт Продолжительность : 1 ч. 48 м. Общий поток : 1 924 Кбит/сек Программа кодирования : VirtualDubMod 1.5.10.2 (build 2540/release) Библиотека кодирования : VirtualDubMod build 2540/release Видео Идентификатор : 0 Формат : MPEG-4 Visual Профиль формата : Advanced Simple@L5 Настройки формата : BVOP1 / Custom Matrix Параметр BVOP формата : 1 Параметр QPel формата : Нет Параметр GMC формата : Без точки перехода Параметр матрицы формата : Выборочная Идентификатор кодека : XVID Идентификатор кодека/Подсказка : XviD Продолжительность : 1 ч. 48 м. Битрейт : 1 531 Кбит/сек Ширина : 720 пикселей Высота : 304 пикселя Соотношение сторон : 2,35:1 Частота кадров : 23,976 (24000/1001) кадра/сек Цветовое пространство : YUV Субдискретизация насыщенности : 4:2:0 Битовая глубина : 8 бит Тип развёртки : Прогрессивная Метод сжатия : С потерями Бит/(Пиксели*Кадры) : 0.292 Размер потока : 1,16 Гбайт (80%) Библиотека кодирования : XviD 73 Аудио Идентификатор : 1 Формат : AC-3 Формат/Информация : Audio Coding 3 Коммерческое название : Dolby Digital Идентификатор кодека : 2000 Продолжительность : 1 ч. 48 м. Вид битрейта : Постоянный Битрейт : 384 Кбит/сек Каналы : 6 каналов Channel layout : L R C LFE Ls Rs Частота : 48,0 КГц Частота кадров : 31,250 кадров/сек (1536 SPF) Метод сжатия : С потерями Размер потока : 298 Мбайт (20%) Выравнивание : Разделение по промежуткам Продолжительность промежутка : 42 мс. (1,00 видеокадр) Время предзагрузки промежутка : 500 мс. Service kind : Complete Main

Всего файлов в раздаче: 1 
Darkness.of.Man.2024.WEB-DLRip_от New-Team_by_JNS82.avi1.46 GB

Похожие раздачи по запросу - Тьма
2024-06-07 magnet Павел Вяч - Хирург 4, Ученье - свет, а неученье - тьма (2024) МР3 475.57 MB ↑ 0 ↓ 0
2024-06-03 magnet Тьма человеческая / Тьма человека / Darkness of Man (2024) BDRip 720p от DoMiNo & селезень | P | TVShows 4.07 GB ↑ 0 ↓ 1
2024-06-03 magnet Тьма человеческая / Тьма человека / Darkness of Man (2024) BDRip 1080p от New-Team | P | TVShows 8.38 GB ↑ 0 ↓ 1
2024-06-03 magnet Тьма человеческая / Тьма человека / Darkness of Man (2024) BDRip 1080p от New-Team | P | TVShows 8.38 GB ↑ 0 ↓ 0
2024-06-01 magnet Тьма человеческая / Тьма человека / Darkness of Man (2024) BDRip от MegaPeer | P | TVShows 1.46 GB ↑ 0 ↓ 0
2024-05-27 magnet Тьма человеческая / Darkness of Man (2024) WEB-DL 1080p | ViruseProject 7.82 GB ↑ 0 ↓ 0
2024-05-17 magnet Тьма человеческая / Тьма человека / Darkness of Man (2024) WEB-DL 1080p от New-Team | P | TVShows 7.82 GB ↑ 0 ↓ 0

Кто качает (только для создателя раздачи и модераторов): Локальные пиры отсутствуют

Комментарии


Зарегистрируйтесь чтобы добавить комментарий
Торрент клиент
byTorrent - программа для загрузки торрент-файлов.

Скачать byTorrent.exe (1,5 МБ)

Скачать byTorrent.zip (0,6 МБ)

Поддержи torrent.by
российских рублей
(300 российских рублей это 4$)

Обратная связь rss

End game ©