↑↓torrent.by
Поиск
Логин:  Регистрация
Пароль:

Волга-Волга (1938) HDTVRip-AVC от ExKinoRay | Цветная версия

download Скачать торрент-файл   magnet Магнитная ссылка Размер: 3.05 GB Добавлен: 2024-05-17 11:00
Пиры будут получены из сети DHT
Последний сидер был замечен 2024-06-14 06:27
Информация о фильме Название: Волга-Волга Год выхода: 1938 Жанр: Комедия, музыкальный Режиссер: Григорий Александров В ролях: Игорь Ильинский, Любовь Орлова, Павел Оленев, Андрей Тутышкин, Сергей Антимонов, Владимир Володин, Мария Миронова ст., Всеволод Санаев, Эммануил Геллер, Никита Кондратьев, Иван Чувелев, Анатолий Шалаев, Алексей Долинин О фильме: Начальник управления мелкой кустарной промышленности Бывалов мечтает о службе в Москве. Он получает распоряжение подготовить к всесоюзному смотру участников художественной самодеятельности. Бывалов считает, что посылать в Москву некого, несмотря на то, что в городе есть два творческих коллектива. В конце концов каждая группа отправляется по Волге в столицу своим путем... Одна из первых советских музыкальных комедий, которая веселила несколько поколений кино- и телезрителей. Сегодня она кажется немного наивной, но это не умаляет обаяния игры легендарных актеров. Персонажи "Волги-Волги" будут "возрождаться" в комедиях последующих лет, подобно Огурцову из "Карнавальной ночи"... Если вам вдруг захочется "рвать и метать", вспомните, откуда пришло это выражение, - и улыбнитесь!.. Страна: СССР, киностудия "Мосфильм" Продолжительность: 01:38:53 Перевод: не требуется Файл Кодек: MKV Качество: HDTVRip-AVC Видео: MPEG-4 AVC, 3970 Кбит/с, 898х648 Звук: AC3, 6 ch, 448 Кбит/с
[+] Скриншоты
[+] Медиа-Инфоraw : 898x648p 1:1 @ 25/1 fps (cfr) x264 : using SAR=1/1 x264 : using cpu capabilities: MMX2 SSE2Fast SSSE3 SSE4.2 AVX x264 : profile High, level 4.1 x264 : frame I:898 Avg QP:15.82 size:105894 x264 : frame P:37670 Avg QP:19.04 size: 42356 x264 : frame B:109750 Avg QP:21.67 size: 11415 =============================================================================================================== Общее Уникальный идентификатор : 240665703168749724243324480237277831871 (0xB50E8747514F87C98C5356A80D0062BF) Полное имя : D:Волга-Волга_1938-HDTVRip-AVC(color).mkv Формат : Matroska Версия формата : Version 2 Размер файла : 3,05 Гбайт Продолжительность : 1 ч. 38 м. Общий поток : 4419 Кбит/сек Дата кодирования : UTC 2015-08-06 22:25:30 Программа кодирования : mkvmerge v5.8.0 ('No Sleep / Pillow') built on Sep 2 2012 15:37:04 Библиотека кодирования : libebml v1.2.3 + libmatroska v1.3.0 Видео Идентификатор : 1 Формат : AVC Формат/Информация : Advanced Video Codec Профиль формата : High@L4.1 Параметр CABAC формата : Да Параметр ReFrames формата : 14 кадров Идентификатор кодека : V_MPEG4/ISO/AVC Продолжительность : 1 ч. 38 м. Битрейт : 3970 Кбит/сек Ширина : 898 пикселей Высота : 648 пикселей Соотношение сторон : 1,386 Режим частоты кадров : Постоянный Частота кадров : 25,000 кадров/сек Цветовое пространство : YUV Субдискретизация насыщенности : 4:2:0 Битовая глубина : 8 бит Тип развёртки : Прогрессивная Бит/(Пиксели*Кадры) : 0.273 Размер потока : 2,68 Гбайт (88%) Библиотека кодирования : x264 core 130 r2273 b3065e6 Настройки программы : cabac=1 / ref=14 / deblock=1:-2:-2 / analyse=0x3:0x113 / me=umh / subme=10 / psy=1 / psy_rd=1.05:0.07 / mixed_ref=1 / me_range=32 / chroma_me=1 / trellis=2 / 8x8dct=1 / cqm=0 / deadzone=21,11 / fast_pskip=0 / chroma_qp_offset=-3 / threads=12 / lookahead_threads=2 / sliced_threads=0 / nr=0 / decimate=0 / interlaced=0 / bluray_compat=0 / constrained_intra=0 / bframes=8 / b_pyramid=2 / b_adapt=2 / b_bias=0 / direct=3 / weightb=1 / open_gop=0 / weightp=2 / keyint=250 / keyint_min=25 / scenecut=40 / intra_refresh=0 / rc_lookahead=60 / rc=2pass / mbtree=1 / bitrate=3970 / ratetol=1.0 / qcomp=0.65 / qpmin=0 / qpmax=39 / qpstep=4 / cplxblur=20.0 / qblur=0.5 / ip_ratio=1.40 / aq=1:1.00 Язык : English Default : Да Forced : Нет Цветовой диапазон : Limited Основные цвета : BT.709 Характеристики трансфера : BT.709 Коэффициенты матрицы : BT.709 Аудио Идентификатор : 2 Формат : AC-3 Формат/Информация : Audio Coding 3 Расширение режима : CM (complete main) Параметр Endianness формата : Big Идентификатор кодека : A_AC3 Продолжительность : 1 ч. 38 м. Вид битрейта : Постоянный Битрейт : 448 Кбит/сек Каналы : 6 каналов Расположение каналов : Front: L C R, Side: L R, LFE Частота : 48,0 КГц Битовая глубина : 16 бит Метод сжатия : С потерями Размер потока : 317 Мбайт (10%) Язык : Russian Default : Да Forced : Нет
Релиз от: Автор релиза:

Всего файлов в раздаче: 1 
Волга-Волга_1938-HDTVRip-AVC(color).mkv3.05 GB

Кто качает (только для создателя раздачи и модераторов): Локальные пиры отсутствуют

Комментарии


Зарегистрируйтесь чтобы добавить комментарий
Торрент клиент
byTorrent - программа для загрузки торрент-файлов.

Скачать byTorrent.exe (1,5 МБ)

Скачать byTorrent.zip (0,6 МБ)

Поддержи torrent.by
российских рублей
(300 российских рублей это 4$)

Обратная связь rss

End game ©