↑↓torrent.by
Поиск
Логин:  Регистрация
Пароль:

Выстрел вслепую / Blindfire (2020) BDRip-AVC от DoMiNo & селезень | D

download Скачать торрент-файл   magnet Магнитная ссылка Размер: 1.62 GB Добавлен: 2024-05-17 11:00
Пиры будут получены из сети DHT
Последний сидер был замечен 2024-05-26 18:19
Информация о фильме Название: Выстрел вслепую Оригинальное название: Blindfire Год выхода: 2020 Жанр: Триллер, драма, криминал Режиссер: Майкл Нелл В ролях: Брайан Джерати, Шэрон Лил, Бетани Джои Ленц, Джим Бивер, Эдвина Финдли, Чике Оконкво, Уэйн Брэди, Сэм Эш Арнольд, Том Вирту, Кевин Росс Описание: В диспетчерскую службы спасения поступает сигнал о захвате заложников. Обычный полицейский Уилл Бишоп отвечает на вызов, еще не подозревая, что этот выезд разделит его жизнь на до и после. Страна: США Студия: Kandoo Films Продолжительность: 01:22:10 Перевод: Профессиональный (полное дублирование) | Видео Продакшн Субтитры: Английские (Full) Файл Формат: Matroska Качество: BDRip-AVC Видео: 1024x428 at 23.976 fps, x264@L4.1, ~1922 kbps Аудио 1: AC3, 6 ch, ~448 kbps - | Русский | Аудио 2: AC3, 6 ch, ~448 kbps - | Английский | Формат субтитров: softsub (SRT) ***Рип от: -=DoMiNo=-
[+] M/Ix264 : frame I:809 Avg QP:15.23 size: 52876 x264 : frame P:22723 Avg QP:16.93 size: 20799 x264 : frame B:94671 Avg QP:18.62 size: 7067 x264 : consecutive B-frames: 1.3% 1.5% 5.7% 11.9% 16.0% 48.8% 5.4% 1.4% 2.3% 0.7% 0.9% 1.7% 0.8% 0.9% 0.6% General Unique ID : 45741436493692949590549789762670618114 (0x22697AEFF9F4593422CD13C75CB8E602) Complete name : H:Blindfire.2020.BDRip.x264.seleZen.mkv Format : Matroska Format version : Version 4 File size : 1.62 GiB Duration : 1 h 22 min Overall bit rate : 2 820 kb/s Movie name : Blindfire.2020.BDRip.x264.seleZen Encoded date : UTC 2023-01-18 18:03:37 Writing application : mkvmerge v73.0.0 ('25 or 6 to 4') 64-bit Writing library : libebml v1.4.4 + libmatroska v1.7.1 Cover : Yes Attachments : cover.jpg / small_cover.jpg Video ID : 1 Format : AVC Format/Info : Advanced Video Codec Format profile : High@L4.1 Format settings : CABAC / 11 Ref Frames Format settings, CABAC : Yes Format settings, Reference : 11 frames Codec ID : V_MPEG4/ISO/AVC Duration : 1 h 22 min Bit rate : 1 922 kb/s Width : 1 024 pixels Height : 428 pixels Display aspect ratio : 2.40:1 Frame rate mode : Constant Frame rate : 23.976 (24000/1001) FPS Color space : YUV Chroma subsampling : 4:2:0 Bit depth : 8 bits Scan type : Progressive Bits/(Pixel*Frame) : 0.183 Stream size : 1.10 GiB (68%) Title : -=DoMiNo=- Writing library : x264 core 164 by -=DoMiNo=- Encoding settings : cabac=1 / ref=11 / deblock=1:-3:-3 / analyse=0x3:0x133 / me=umh / subme=11 / psy=1 / psy_rd=1.03:0.02 / mixed_ref=1 / me_range=48 / chroma_me=1 / trellis=2 / 8x8dct=1 / cqm=0 / deadzone=21,11 / fast_pskip=0 / chroma_qp_offset=-3 / threads=17 / lookahead_threads=3 / sliced_threads=0 / nr=0 / decimate=1 / interlaced=0 / bluray_compat=0 / constrained_intra=0 / bframes=14 / b_pyramid=2 / b_adapt=2 / b_bias=0 / direct=1 / weightb=1 / open_gop=0 / weightp=2 / keyint=240 / keyint_min=23 / scenecut=40 / intra_refresh=0 / rc=crf / mbtree=0 / crf=18.3 / qcomp=0.60 / qpmin=0 / qpmax=69 / qpstep=4 / ip_ratio=1.35 / pb_ratio=1.25 / aq=3:0.80 Language : English Default : Yes Forced : No Color range : Limited Matrix coefficients : BT.709 Audio #1 ID : 2 Format : AC-3 Format/Info : Audio Coding 3 Commercial name : Dolby Digital Codec ID : A_AC3 Duration : 1 h 22 min Bit rate mode : Constant Bit rate : 448 kb/s Channel(s) : 6 channels Channel layout : L R C LFE Ls Rs Sampling rate : 48.0 kHz Frame rate : 31.250 FPS (1536 SPF) Compression mode : Lossy Stream size : 263 MiB (16%) Title : DUB Language : Russian Service kind : Complete Main Default : Yes Forced : Yes Audio #2 ID : 3 Format : AC-3 Format/Info : Audio Coding 3 Commercial name : Dolby Digital Codec ID : A_AC3 Duration : 1 h 22 min Bit rate mode : Constant Bit rate : 448 kb/s Channel(s) : 6 channels Channel layout : L R C LFE Ls Rs Sampling rate : 48.0 kHz Frame rate : 31.250 FPS (1536 SPF) Compression mode : Lossy Stream size : 263 MiB (16%) Title : Original Language : English Service kind : Complete Main Default : No Forced : No Text ID : 4 Format : UTF-8 Codec ID : S_TEXT/UTF8 Codec ID/Info : UTF-8 Plain Text Duration : 1 h 17 min Bit rate : 54 b/s Frame rate : 0.241 FPS Count of elements : 1116 Stream size : 30.6 KiB (0%) Title : Full Language : English Default : No Forced : No Menu 00:00:00.000 : en:Chapter 01 00:07:27.029 : en:Chapter 02 00:20:14.171 : en:Chapter 03 00:32:19.854 : en:Chapter 04 00:41:37.161 : en:Chapter 05 00:53:07.893 : en:Chapter 06 01:06:22.311 : en:Chapter 07 01:17:52.501 : en:Chapter 08 01:22:10.008 : en:Chapter 09
Релиз: Присоединяйся к: Кликай на баннеры.

Всего файлов в раздаче: 1 
Blindfire.2020.BDRip.x264.seleZen.mkv1.62 GB

Похожие раздачи по запросу - Выстрел
2023-03-17 magnet Денежный выстрел: История Pornhub / Money Shot: The Pornhub Story (2023) WEBRip-HEVC 1080p | L2 1.45 GB ↑ 0 ↓ 0

Кто качает (только для создателя раздачи и модераторов): Локальные пиры отсутствуют

Комментарии


Зарегистрируйтесь чтобы добавить комментарий
Торрент клиент
byTorrent - программа для загрузки торрент-файлов.

Скачать byTorrent.exe (1,5 МБ)

Скачать byTorrent.zip (0,6 МБ)

Поддержи torrent.by
российских рублей
(300 российских рублей это 4$)

Обратная связь rss

End game ©