↑↓torrent.by
Поиск
Логин:  Регистрация
Пароль:

Беспринципные [S04] (2024) WEBRip-HEVC 2160p | 4K | HDR

download Скачать торрент-файл   magnet Магнитная ссылка Размер: 36.89 GB Добавлен: 2024-05-17 17:00
Пиры будут получены из сети DHT
Последний сидер был замечен 2024-06-01 21:12
Информация о фильме Название: Беспринципные Год выхода: 2024 Жанр: Комедия Режиссёр: Роман Прыгунов В ролях: Павел Деревянко, Павел Табаков, Аглая Тарасова, Николай Фоменко, Кристина Бабушкина, Юрий Колокольников, Надежда Михалкова, Марина Доможирова, Александр Балуев, Ирина Пегова, Максим Лагашкин, Милош Бикович, Анна Слю, Матвей Лыков, Ксения Утехина, Дмитрий Муляр, Павел Ворожцов, Карина Зверева, Екатерина Кабак, Алина Дьяченко, Владимир Ляхов, Андрей Жилин, Семён Литвинов, Владислав Резник, Александр Дзюба, Алексей Семёнов, Зоя Зиновьева, Владимир Барташевич, Макс Громов, Михаил Коновалов, Вероника Ряполова, Валентин Бугаев, Виталий Шкунов, Ян Теплов, Владимир Пачин, Юрий Землянухин, Нина Кириллова, Владимир Вострецов, Александра Рудь, Елизавета Агарунова, Зарина Бахтиева, Евгений Петров, Александр Шестопалов, Юлия Марчук, Михаил Демчук, Маша Бриш, Сергей Бондаренко, Татьяна Монахова, Алиса Прокопенко, Анжелика Легостаева, Артемий Корочков, Ольга Челышева, Егор Карамышев, Игорь Басин, Анна Корепина, Юрий Могила, Сергей Шанин О фильме: У Славика в жизни сплошная турбулентность: развод с Людой, новая любовь, но старые слабости. Генерал Хадяков переживает вторую молодость, пока Валя строит карьеру певицы вместе с хитрым продюсером. Паша и Юля продолжают искать лёгкие деньги, а Рома и Вера — воспитывать ребёнка и друг друга в момент, когда в их жизни появляется иностранец Стефан. Тем временем из деревни на Патрики перебираются Алёнка и её родители, которым столичная жизнь тоже оказывается очень по вкусу… Страна: Россия Студия: Кинокомпания «Медиаслово» Продолжительность: 8 х ~ 01:05:00 Язык: Русский Премьера в Росcии: 28 марта 2024 года Цифровой релиз: 28 марта 2024 года Примечание: Без рекламы Возраст: 18+ Файл Формат: MKV Качество: WEBRip-HEVC 2160p Видео: MPEG-H HEVC HDR, ~ 11.2 Mбит/с, 3840x1608, 10 бит Аудио #01: E-AC3, 6 ch, 448 Кбит/с Аудио #02: E-AC3, 6 ch, 448 Кбит/с | Тифлокомментирование Субтитры: Русские (полные, SDH) Семпл
[+] Скриншоты
[+] MIОбщее Уникальный идентификатор : 118189268249609447817828538456381441896 (0x58EA6CD238820C4B2793E4B5AFE1C768) Полное имя : C:UsersAdminDesktopБеспринципные.S04.2160p.WEB-DL.HEVC.HDRБеспринципные.S04E01.2160p.WEB-DL.HEVC.HDR.mkv Формат : Matroska Версия формата : Version 4 Размер файла : 5,47 Гбайт Продолжительность : 1 ч. 4 м. Общий поток : 12,1 Мбит/сек Дата кодирования : UTC 2024-03-27 21:07:23 Программа кодирования : mkvmerge v82.0 ('I'm The President') 64-bit Библиотека кодирования : libebml v1.4.5 + libmatroska v1.7.1 Видео Идентификатор : 1 Формат : HEVC Формат/Информация : High Efficiency Video Coding Профиль формата : Main 10@L5@High HDR format : SMPTE ST 2086, HDR10 compatible Идентификатор кодека : V_MPEGH/ISO/HEVC Продолжительность : 1 ч. 4 м. Битрейт : 11,2 Мбит/сек Ширина : 3 840 пикселей Высота : 1 608 пикселей Соотношение сторон : 2,40:1 Режим частоты кадров : Постоянный Частота кадров : 25,000 кадров/сек Цветовое пространство : YUV Субдискретизация насыщенности : 4:2:0 Битовая глубина : 10 бит Бит/(Пиксели*Кадры) : 0.073 Размер потока : 5,06 Гбайт (93%) Библиотека кодирования : x265 3.5: 10bit Настройки программы : cpuid=1111039 / frame-threads=5 / wpp / no-pmode / no-pme / no-psnr / no-ssim / log-level=2 / input-csp=1 / input-res=3840x1608 / interlace=0 / total-frames=0 / level-idc=50 / high-tier=1 / uhd-bd=0 / ref=2 / no-allow-non-conformance / repeat-headers / annexb / no-aud / hrd / info / hash=0 / no-temporal-layers / open-gop / min-keyint=1 / keyint=100 / gop-lookahead=0 / bframes=4 / b-adapt=2 / b-pyramid / bframe-bias=0 / rc-lookahead=25 / lookahead-slices=4 / scenecut=40 / hist-scenecut=0 / radl=0 / no-splice / no-intra-refresh / ctu=64 / min-cu-size=8 / rect / no-amp / max-tu-size=32 / tu-inter-depth=1 / tu-intra-depth=1 / limit-tu=0 / rdoq-level=2 / dynamic-rd=0.00 / no-ssim-rd / signhide / no-tskip / nr-intra=0 / nr-inter=0 / no-constrained-intra / strong-intra-smoothing / max-merge=3 / limit-refs=3 / limit-modes / me=3 / subme=3 / merange=57 / temporal-mvp / no-frame-dup / no-hme / weightp / no-weightb / no-analyze-src-pics / deblock=0:0 / sao / no-sao-non-deblock / rd=4 / selective-sao=4 / no-early-skip / rskip / no-fast-intra / no-tskip-fast / no-cu-lossless / no-b-intra / no-splitrd-skip / rdpenalty=0 / psy-rd=2.00 / psy-rdoq=1.00 / no-rd-refine / no-lossless / cbqpoffs=0 / crqpoffs=0 / rc=abr / bitrate=11600 / qcomp=0.60 / qpstep=4 / stats-write=0 / stats-read=2 / cplxblur=20.0 / qblur=0.5 / vbv-maxrate=17400 / vbv-bufsize=46400 / vbv-init=0.8 / min-vbv-fullness=50.0 / max-vbv-fullness=80.0 / ipratio=1.40 / pbratio=1.30 / aq-mode=2 / aq-strength=1.00 / cutree / zone-count=0 / no-strict-cbr / qg-size=32 / no-rc-grain / qpmax=69 / qpmin=0 / no-const-vbv / sar=1 / overscan=0 / videoformat=5 / range=0 / colorprim=9 / transfer=16 / colormatrix=9 / chromaloc=0 / display-window=0 / master-display=G(8500,39850)B(6550,2300)R(35400,14600)WP(15635,16450)L(10000000,1) / cll=999,286 / min-luma=0 / max-luma=1023 / log2-max-poc-lsb=8 / vui-timing-info / vui-hrd-info / slices=1 / no-opt-qp-pps / no-opt-ref-list-length-pps / no-multi-pass-opt-rps / scenecut-bias=0.05 / hist-threshold=0.03 / no-opt-cu-delta-qp / no-aq-motion / hdr10 / hdr10-opt / no-dhdr10-opt / no-idr-recovery-sei / analysis-reuse-level=0 / analysis-save-reuse-level=0 / analysis-load-reuse-level=0 / scale-factor=0 / refine-intra=0 / refine-inter=0 / refine-mv=1 / refine-ctu-distortion=0 / no-limit-sao / ctu-info=0 / no-lowpass-dct / refine-analysis-type=0 / copy-pic=1 / max-ausize-factor=1.0 / no-dynamic-refine / no-single-sei / no-hevc-aq / no-svt / no-field / qp-adaptation-range=1.00 / scenecut-aware-qp=0conformance-window-offsets / right=0 / bottom=0 / decoder-max-rate=0 / no-vbv-live-multi-pass Язык : English Default : Да Forced : Нет Цветовой диапазон : Limited Основные цвета : BT.2020 Характеристики трансфера : PQ Коэффициенты матрицы : BT.2020 non-constant Mastering display color primaries : BT.2020 Mastering display luminance : min: 0.0001 cd/m2, max: 1000 cd/m2 Maximum Content Light Level : 999 cd/m2 Maximum Frame-Average Light Level : 286 cd/m2 Аудио #1 Идентификатор : 2 Формат : E-AC-3 Формат/Информация : Enhanced AC-3 Коммерческое название : Dolby Digital Plus Идентификатор кодека : A_EAC3 Продолжительность : 1 ч. 4 м. Вид битрейта : Постоянный Битрейт : 448 Кбит/сек Каналы : 6 каналов Channel layout : L R C LFE Ls Rs Частота : 48,0 КГц Частота кадров : 31,250 кадров/сек (1536 SPF) Метод сжатия : С потерями Размер потока : 207 Мбайт (4%) Заголовок : Русский 5.1 Язык : Russian-x-51 Service kind : Complete Main Default : Да Forced : Нет Аудио #2 Идентификатор : 3 Формат : E-AC-3 Формат/Информация : Enhanced AC-3 Коммерческое название : Dolby Digital Plus Идентификатор кодека : A_EAC3 Продолжительность : 1 ч. 4 м. Вид битрейта : Постоянный Битрейт : 448 Кбит/сек Каналы : 6 каналов Channel layout : L R C LFE Ls Rs Частота : 48,0 КГц Частота кадров : 31,250 кадров/сек (1536 SPF) Метод сжатия : С потерями Размер потока : 207 Мбайт (4%) Заголовок : Русский 5.1 (аудиодескрипция) Язык : Russian-x-ad-51 Service kind : Complete Main Default : Нет Forced : Нет Текст #1 Идентификатор : 4 Формат : UTF-8 Идентификатор кодека : S_TEXT/UTF8 Идентификатор кодека/Информация : UTF-8 Plain Text Продолжительность : 1 ч. 1 м. Битрейт : 125 бит/сек Частота кадров : 0,284 кадр/сек Count of elements : 1051 Размер потока : 56,5 Кбайт (0%) Заголовок : SDH Язык : Russian-x-sdh Default : Да Forced : Нет Текст #2 Идентификатор : 5 Формат : UTF-8 Идентификатор кодека : S_TEXT/UTF8 Идентификатор кодека/Информация : UTF-8 Plain Text Продолжительность : 1 ч. 1 м. Битрейт : 109 бит/сек Частота кадров : 0,254 кадр/сек Count of elements : 933 Размер потока : 49,3 Кбайт (0%) Заголовок : Русские Язык : Russian Default : Да Forced : Нет

Всего файлов в раздаче: 8 
[NOOBDL]Беспринципные.S04E01.2160p.WEB-DL.HEVC.HDR.mkv5.47 GB
[NOOBDL]Беспринципные.S04E02.2160p.WEB-DL.HEVC.HDR.mkv4.69 GB
[NOOBDL]Беспринципные.S04E03.2160p.WEB-DL.HEVC.HDR.mkv3.67 GB
[NOOBDL]Беспринципные.S04E04.2160p.WEB-DL.HEVC.HDR.mkv4.94 GB
[NOOBDL]Беспринципные.S04E05.2160p.WEB-DL.HEVC.HDR.mkv4.83 GB
[NOOBDL]Беспринципные.S04E06.2160p.WEB-DL.HEVC.HDR.mkv4.01 GB
[NOOBDL]Беспринципные.S04E07.2160p.WEB-DL.HEVC.HDR.mkv4.36 GB
[NOOBDL]Беспринципные.S04E08.2160p.WEB-DL.HEVC.HDR.mkv4.93 GB

Похожие раздачи по запросу - Беспринципные
2024-05-28 magnet Беспринципные [S04] (2024) WEB-DL 720p 8.53 GB ↑ 0 ↓ 0
2024-05-23 magnet Беспринципные [S04] (2024) WEB-DLRip-AVC от Generalfilm | КПК 1.92 GB ↑ 0 ↓ 0
2024-05-20 magnet Беспринципные [S04] (2024) WEB-DLRip-AVC от Files-x 6.93 GB ↑ 0 ↓ 0
2024-05-20 magnet Беспринципные [S04] (2024) WEB-DLRip от Files-x 5.77 GB ↑ 0 ↓ 0
2024-05-20 magnet Беспринципные [S01-04] (2020-2024) WEB-DL 1080p от ExKinoRay 63.62 GB ↑ 0 ↓ 0
2024-05-19 magnet Беспринципные [S04] (2024) WEB-DLRip от Files-x 5.68 GB ↑ 0 ↓ 0
2024-05-18 magnet Беспринципные [04x01-08 из 08] (2024) WEBRip-HEVC 1080p от ExKinoRay 15.97 GB ↑ 0 ↓ 0

Кто качает (только для создателя раздачи и модераторов): Локальные пиры отсутствуют

Комментарии


Зарегистрируйтесь чтобы добавить комментарий
Торрент клиент
byTorrent - программа для загрузки торрент-файлов.

Скачать byTorrent.exe (1,5 МБ)

Скачать byTorrent.zip (0,6 МБ)

Поддержи torrent.by
российских рублей
(300 российских рублей это 4$)

Обратная связь rss

End game ©