↑↓torrent.by
Поиск
Логин:  Регистрация
Пароль:

Фоллаут / Fallout [S01] (2024) WEB-DL 720p | D, P, P2

download Скачать торрент-файл   magnet Магнитная ссылка Размер: 19.33 GB Раздают: 0 Качают: 1 Добавлен: 2024-05-17 17:00
Пиры будут получены из сети DHT
Последний сидер был замечен 2024-06-16 18:56
Название: Фоллаут Оригинальное название: Fallout Год выхода: 2024 Производство: США / Amazon Studios, Bethesda Game Studios Жанр: Фантастика, боевик, драма, приключения Перевод: Дублированный (неофициальный), профессиональный (многоголосый, закадровый), профессиональный (двухголосый, закадровый) Продолжительность: 8 x ~ 01:00:00 Режиссёры: Джонатан Нолан, Клер Килнер, Фред Туа В ролях: Уолтон Гоггинс, Элла Пернелл, Кайл МакЛахлен, Рон Перлман, Майк Дойл, Мойзес Ариас, Дэйл Дики, Майкл Эмерсон, Крис Парнелл, Зак Черри, Лесли Уггамс, Сарита Чоудхури, Аарон Мотен, Кселия Мендес-Джонс, Мэтти Кардаропл, Чарли Бессо, Майкл Джон Бензай, Мейсон Куфари, Джонни Пембертон, Лир Лири, Дэйв Регистр, Родриго Луцци, Шерин Дабис, Кристофер Паркер, Гарри Саттон-младший, Дэниел Джей Мартин, Шейла Хэд, Рафи Сильвер, Чип Каррьер, Ребекка Уотсон Описание: Люси совсем не готова к реальной жизни иссушённого постапокалипсисом мира за пределами подземного убежища, в котором она выросла. Но узнаёт она об этом, только когда в родную систему бункеров проникнут бандиты с той самой недружелюбной поверхности, порушат обжитые коридоры, погубят местных жителей и урожай, заберут любимого отца и уведут его за собой на поверхность. Не готовая с этим мириться, Люси выбирается наружу, чтобы столкнуться со всеми превратностями тяжёлой жизни на поверхности и теми, кто её там встретит. В их числе - мутировавший из-за радиации охотник за головами Гуль, лично видевший ядерные взрывы, которые привели к трагедии на планете, и Максимус, адепт так называемого воинственного Братства стали, преданный своему делу как никто другой. Формат: MKV Качество: WEB-DL 720p Видео: MPEG4 AVC / ~3323 Kbps / 1280x720 / 24.000 fps - серии 1, 6 Видео: MPEG4 AVC / ~3323 Kbps / 1248x520 / 24.000 fps - серии 2-5, 7, 8 Аудио 1: AC-3, 48 kHz, 2 ch, 384 kbps | Русский MVO | HDRezka Studio Аудио 2: AC-3, 48 kHz, 2 ch, 192 kbps | Русский DVO | Кубик в Кубе 18+ Аудио 3: AC-3, 48 kHz, 2 ch, 384 kbps | Русский MVO | LostFilm Аудио 4: AC-3, 48 kHz, 6 ch, 384 kbps | Русский MVO | Jaskier Аудио 5: AC-3, 48 kHz, 2 ch, 192 kbps | Русский дублированный | Red Head Sound Аудио 6: AC-3, 48 kHz, 2 ch, 192 kbps | Русский дублированный | HDRezka Studio Аудио 7: E-AC-3 ATMOS, 48 kHz, 6 ch, 576 kbps | Original Субтитры: Русские (Forced, Full), английские (Full, SDH)
[+] MediainfoGeneral Unique ID : 281073392720368052713076145125291075189 (0xD374C4303D27C16BE8C2CA24E65E2675) Complete name : Fallout.S01E01.The.End.720p.WEB-DL.H.264.mkv Format : Matroska Format version : Version 4 File size : 2.95 GiB Duration : 1 h 14 min Overall bit rate : 5 631 kb/s Frame rate : 24.000 FPS Encoded date : 2024-04-24 18:24:19 UTC Writing application : mkvmerge v82.0 ('I'm The President') 64-bit Writing library : libebml v1.4.5 + libmatroska v1.7.1 Video ID : 1 Format : AVC Format/Info : Advanced Video Codec Format profile : High@L3.1 Format settings : CABAC / 4 Ref Frames Format settings, CABAC : Yes Format settings, Reference frames : 4 frames Codec ID : V_MPEG4/ISO/AVC Duration : 1 h 14 min Bit rate mode : Constant Bit rate : 3 323 kb/s Nominal bit rate : 4 000 kb/s Width : 1 280 pixels Height : 720 pixels Display aspect ratio : 16:9 Frame rate mode : Constant Frame rate : 24.000 FPS Color space : YUV Chroma subsampling : 4:2:0 Bit depth : 8 bits Scan type : Progressive Bits/(Pixel*Frame) : 0.150 Stream size : 1.74 GiB (59%) Default : Yes Forced : No Color range : Limited Color primaries : BT.709 Transfer characteristics : BT.709 Matrix coefficients : BT.709 Audio #1 ID : 2 Format : AC-3 Format/Info : Audio Coding 3 Commercial name : Dolby Digital Codec ID : A_AC3 Duration : 1 h 14 min Bit rate mode : Constant Bit rate : 384 kb/s Channel(s) : 2 channels Channel layout : L R Sampling rate : 48.0 kHz Frame rate : 31.250 FPS (1536 SPF) Compression mode : Lossy Stream size : 206 MiB (7%) Title : MVO Language : Russian Service kind : Complete Main Default : Yes Forced : No Audio #2 ID : 3 Format : AC-3 Format/Info : Audio Coding 3 Commercial name : Dolby Digital Codec ID : A_AC3 Duration : 1 h 14 min Bit rate mode : Constant Bit rate : 192 kb/s Channel(s) : 2 channels Channel layout : L R Sampling rate : 48.0 kHz Frame rate : 31.250 FPS (1536 SPF) Compression mode : Lossy Stream size : 103 MiB (3%) Title : DVO 18+ Language : Russian Service kind : Complete Main Default : No Forced : No Audio #3 ID : 4 Format : AC-3 Format/Info : Audio Coding 3 Commercial name : Dolby Digital Codec ID : A_AC3 Duration : 1 h 14 min Bit rate mode : Constant Bit rate : 384 kb/s Channel(s) : 2 channels Channel layout : L R Sampling rate : 48.0 kHz Frame rate : 31.250 FPS (1536 SPF) Compression mode : Lossy Stream size : 206 MiB (7%) Title : MVO Language : Russian Service kind : Complete Main Default : No Forced : No Audio #4 ID : 5 Format : AC-3 Format/Info : Audio Coding 3 Commercial name : Dolby Digital Codec ID : A_AC3 Duration : 1 h 14 min Bit rate mode : Constant Bit rate : 384 kb/s Channel(s) : 6 channels Channel layout : L R C LFE Ls Rs Sampling rate : 48.0 kHz Frame rate : 31.250 FPS (1536 SPF) Compression mode : Lossy Stream size : 206 MiB (7%) Title : MVO Language : Russian Service kind : Complete Main Default : No Forced : No Audio #5 ID : 6 Format : AC-3 Format/Info : Audio Coding 3 Commercial name : Dolby Digital Codec ID : A_AC3 Duration : 1 h 14 min Bit rate mode : Constant Bit rate : 192 kb/s Channel(s) : 2 channels Channel layout : L R Sampling rate : 48.0 kHz Frame rate : 31.250 FPS (1536 SPF) Compression mode : Lossy Stream size : 103 MiB (3%) Title : Dub Language : Russian Service kind : Complete Main Default : No Forced : No Audio #6 ID : 7 Format : AC-3 Format/Info : Audio Coding 3 Commercial name : Dolby Digital Codec ID : A_AC3 Duration : 1 h 14 min Bit rate mode : Constant Bit rate : 192 kb/s Channel(s) : 2 channels Channel layout : L R Sampling rate : 48.0 kHz Frame rate : 31.250 FPS (1536 SPF) Compression mode : Lossy Stream size : 103 MiB (3%) Title : Dub Language : Russian Service kind : Complete Main Default : No Forced : No Audio #7 ID : 8 Format : E-AC-3 JOC Format/Info : Enhanced AC-3 with Joint Object Coding Commercial name : Dolby Digital Plus with Dolby Atmos Codec ID : A_EAC3 Duration : 1 h 14 min Bit rate mode : Constant Bit rate : 576 kb/s Channel(s) : 6 channels Channel layout : L R C LFE Ls Rs Sampling rate : 48.0 kHz Frame rate : 31.250 FPS (1536 SPF) Compression mode : Lossy Stream size : 309 MiB (10%) Title : Original Language : English Service kind : Complete Main Default : No Forced : No Complexity index : 16 Number of dynamic objects : 15 Bed channel count : 1 channel Bed channel configuration : LFE Text #1 ID : 9 Format : UTF-8 Codec ID : S_TEXT/UTF8 Codec ID/Info : UTF-8 Plain Text Duration : 1 h 7 min Bit rate : 1 b/s Frame rate : 0.007 FPS Count of elements : 27 Stream size : 819 Bytes (0%) Title : Forced Language : Russian Default : Yes Forced : No Text #2 ID : 10 Format : UTF-8 Codec ID : S_TEXT/UTF8 Codec ID/Info : UTF-8 Plain Text Duration : 1 h 11 min Bit rate : 47 b/s Frame rate : 0.117 FPS Count of elements : 499 Stream size : 24.7 KiB (0%) Title : Rus Language : Russian (RU) Default : No Forced : No Text #3 ID : 11 Format : UTF-8 Codec ID : S_TEXT/UTF8 Codec ID/Info : UTF-8 Plain Text Duration : 1 h 9 min Bit rate : 39 b/s Frame rate : 0.168 FPS Count of elements : 699 Stream size : 20.3 KiB (0%) Title : Eng Language : English (US) Default : No Forced : No Text #4 ID : 12 Format : UTF-8 Codec ID : S_TEXT/UTF8 Codec ID/Info : UTF-8 Plain Text Duration : 1 h 10 min Bit rate : 49 b/s Frame rate : 0.223 FPS Count of elements : 946 Stream size : 25.7 KiB (0%) Title : SDH Language : English (US) Default : No Forced : No
[+] Скриншоты

Всего файлов в раздаче: 8 
Fallout.S01E01.The.End.720p.WEB-DL.H.264-RGzsRutracker.mkv3.05 GB
Fallout.S01E02.The.Target.720p.WEB-DL.H.264-RGzsRutracker.mkv2.68 GB
Fallout.S01E03.The.Head.720p.WEB-DL.H.264-RGzsRutracker.mkv2.38 GB
Fallout.S01E04.The.Ghouls.720p.WEB-DL.H.264-RGzsRutracker.mkv2.00 GB
Fallout.S01E05.The.Past.720p.WEB-DL.H.264-RGzsRutracker.mkv1.81 GB
Fallout.S01E06.The.Trap.720p.WEB-DL.H.264-RGzsRutracker.mkv2.51 GB
Fallout.S01E07.The.Radio.720p.WEB-DL.H.264-RGzsRutracker.mkv2.47 GB
Fallout.S01E08.The.Beginning.720p.WEB-DL.H.264-RGzsRutracker.mkv2.43 GB

Похожие раздачи по запросу - Фоллаут
2024-05-21 magnet Фоллаут / Fallout [S01] (2024) WEB-DL-HEVC 2160p | 4K | HDR | Dolby Vision | Jaskier, HDrezka Studio, LostFilm, NewStudio, TVShows, Кубик в кубе, NewComers, Red Head Sound, ViruseProject 83.50 GB ↑ 0 ↓ 7
2024-05-18 magnet Фоллаут / Fallout [S01] (2024) WEB-DL 1080p | Jaskier, HDrezka Studio, LostFilm, TVShows, NewStudio, Кубик в кубе, Red Head Sound, NewComers, ViruseProject 47.74 GB ↑ 2 ↓ 4
2024-05-02 magnet Фоллаут / Fallout [S01] (2024) WEB-DL-HEVC 2160p | 4K | SDR | Jaskier, HDrezka Studio, LostFilm, NewStudio, TVShows, Кубик в кубе, NewComers, Red Head Sound, ViruseProject 61.95 GB ↑ 0 ↓ 2
2024-05-01 magnet Фоллаут / Fallout [S01] (2024) WEB-DL-HEVC 2160p | 4K | HDR | Dolby Vision | Jaskier, HDrezka Studio, LostFilm, TVShows, NewComers, NewStudio, ViruseProject, Red Head Sound 81.07 GB ↑ 0 ↓ 2
2024-05-01 magnet Фоллаут / Fallout [S01] (2024) WEB-DL 1080p | Jaskier, HDrezka Studio, LostFilm, TVShows, NewStudio, Кубик в кубе, Red Head Sound, NewComers, ViruseProject 46.35 GB ↑ 0 ↓ 1
2024-05-01 magnet Фоллаут / Fallout [S01] (2024) WEB-DLRip-AVC от DoMiNo & селезень | D, P | Red Head Sound, HDRezka Studio, Jaskier 8.78 GB ↑ 0 ↓ 3
2024-04-30 magnet Фоллаут / Fallout [S01] (2024) WEB-DL 720p | D, P, P2 17.84 GB ↑ 0 ↓ 0

Комментарии


Зарегистрируйтесь чтобы добавить комментарий
Торрент клиент
byTorrent - программа для загрузки торрент-файлов.

Скачать byTorrent.exe (1,5 МБ)

Скачать byTorrent.zip (0,6 МБ)

Поддержи torrent.by
российских рублей
(300 российских рублей это 4$)

Обратная связь rss

End game ©