↑↓torrent.by
Поиск
Логин:  Регистрация
Пароль:

Keane - Hopes And Fears 20 [24-bit Hi-Res] (2024) FLAC

download Скачать торрент-файл   magnet Магнитная ссылка Размер: 3.10 GB Добавлен: 2024-05-17 17:00
Пиры будут получены из сети DHT
Последний сидер был замечен 2024-05-19 07:51
Название: Hopes And Fears 20 Исполнитель: Keane Год: 2024 Жанр: Pop, Rock, Alternative, Indie Издатель (лейбл): Продолжительность: 02:38:47 Формат/Кодек: FLAC Тип рипа: Tracks Битрейт аудио: Lossless Разрядность: 24 Bit/44,1 kHz
[+] Трек-лист CD 01: (00:50:19) 01. Somewhere Only We Know (Remastered 2024) (00:03:56) 02. Bend And Break (Remastered 2024) (00:03:38) 03. We Might As Well Be Strangers (Remastered 2024) (00:03:11) 04. Everybody's Changing (Remastered 2024) (00:03:34) 05. Your Eyes Open (Remastered 2024) (00:03:21) 06. She Has No Time (Remastered 2024) (00:05:44) 07. Can't Stop Now (Remastered 2024) (00:03:37) 08. Sunshine (Remastered 2024) (00:04:10) 09. This Is The Last Time (Remastered 2024) (00:03:28) 10. On A Day Like Today (Remastered 2024) (00:05:26) 11. Untitled 1 (Remastered 2024) (00:05:36) 12. Bedshaped (Remastered 2024) (00:04:38) CD 02: (00:49:25) 01. Snowed Under (Remastered 2024) (00:03:50) 02. Fly To Me (Remastered 2024) (00:05:33) 03. Something In Me Was Dying (Remastered 2024) (00:04:47) 04. She Opens Her Eyes (Remastered 2024) (00:04:27) 05. To The End Of The Earth (Remastered 2024) (00:03:35) 06. The Way You Want It (Fierce Panda Single / Remastered 2024) (00:03:17) 07. Allemande (Remastered 2024) (00:04:23) 08. Walnut Tree (Remastered 2024) (00:03:41) 09. Love Actually (00:04:31) 10. Wonderful River (00:03:42) 11. More Matey (00:03:20) 12. Get Away From Yourself (00:04:19) CD 03: (00:59:03) 01. Somewhere Only We Know (Tim Demo / September 2002) (00:04:52) 02. Somewhere Only We Know (Demo / December 2002) (00:04:15) 03. Bend And Break (Demo / April 2002) (00:04:37) 04. We Might As Well Be Strangers (Tim Demo / September 2003) (00:03:15) 05. Everybody's Changing (Demo / July 2002) (00:03:28) 06. Your Eyes Open (Demo/ April 2002) (00:03:50) 07. She Has No Time (Demo / October 2002) (00:05:28) 08. Can't Stop Now (Demo / January 2003) (00:03:43) 09. Sunshine (Demo / February 2002) (00:05:04) 10. This Is The Last Time (Demo / May 2002) (00:04:51) 11. On A Day Like Today (Tim Demo / September 2003) (00:06:23) 12. Untitled 1 (Tim Demo / May 2002) (00:04:38) 13. Bedshaped (Demo / October 2002) (00:04:39)
[+] DRM foobar2000 1.5.5 / Замер динамического диапазона (DR) 1.1.1 ------------------------------------------------------------------------------ Анализ: Keane / Hopes And Fears 20 -------------------------------------------------------------------------------- DR Пики RMS Продолжительность трека -------------------------------------------------------------------------------- DR6 -0.20 дБ -8.53 дБ 3:56 01-Somewhere Only We Know (Remastered 2024) DR6 -0.20 дБ -8.22 дБ 3:38 02-Bend And Break (Remastered 2024) DR7 -0.20 дБ -11.65 дБ 3:11 03-We Might As Well Be Strangers (Remastered 2024) DR7 -0.20 дБ -8.55 дБ 3:34 04-Everybody's Changing (Remastered 2024) DR7 -0.20 дБ -8.80 дБ 3:21 05-Your Eyes Open (Remastered 2024) DR6 -0.20 дБ -9.60 дБ 5:44 06-She Has No Time (Remastered 2024) DR6 -0.20 дБ -8.27 дБ 3:37 07-Can't Stop Now (Remastered 2024) DR7 -0.20 дБ -10.20 дБ 4:10 08-Sunshine (Remastered 2024) DR6 -0.20 дБ -8.59 дБ 3:28 09-This Is The Last Time (Remastered 2024) DR6 -0.20 дБ -9.48 дБ 5:26 10-On A Day Like Today (Remastered 2024) DR7 -0.20 дБ -9.04 дБ 5:36 11-Untitled 1 (Remastered 2024) DR5 -0.20 дБ -9.47 дБ 4:38 12-Bedshaped (Remastered 2024) -------------------------------------------------------------------------------- Количество треков: 12 Реальные значения DR: DR6 Частота: 96000 Гц Каналов: 2 Разрядность: 24 Битрейт: 2911 кбит/с Кодек: FLAC ================================================================================ -------------------------------------------------------------------------------- Анализ: Keane / Hopes And Fears 20 -------------------------------------------------------------------------------- DR Пики RMS Продолжительность трека -------------------------------------------------------------------------------- DR6 -0.20 дБ -8.99 дБ 3:50 01-Snowed Under (Remastered 2024) DR5 -0.87 дБ -7.83 дБ 5:33 02-Fly To Me (Remastered 2024) DR7 -0.21 дБ -8.20 дБ 4:47 03-Something In Me Was Dying (Remastered 2024) DR9 -0.84 дБ -13.57 дБ 4:27 04-She Opens Her Eyes (Remastered 2024) DR10 -1.22 дБ -13.65 дБ 3:35 05-To The End Of The Earth (Remastered 2024) DR11 -1.03 дБ -13.96 дБ 3:17 06-The Way You Want It (Fierce Panda Single / Remastered 2024) DR9 -0.40 дБ -13.67 дБ 4:23 07-Allemande (Remastered 2024) DR6 -2.09 дБ -9.82 дБ 3:41 08-Walnut Tree (Remastered 2024) DR8 -0.20 дБ -10.23 дБ 4:31 09-Love Actually DR7 -0.20 дБ -10.95 дБ 3:42 10-Wonderful River DR10 -0.20 дБ -13.10 дБ 3:20 11-More Matey DR8 -0.20 дБ -9.94 дБ 4:19 12-Get Away From Yourself -------------------------------------------------------------------------------- Количество треков: 12 Реальные значения DR: DR8 Частота: 96000 Гц Каналов: 2 Разрядность: 24 Битрейт: 2774 кбит/с Кодек: FLAC ================================================================================ -------------------------------------------------------------------------------- Анализ: Keane / Hopes And Fears 20 -------------------------------------------------------------------------------- DR Пики RMS Продолжительность трека -------------------------------------------------------------------------------- DR8 -0.21 дБ -11.33 дБ 4:52 01-Somewhere Only We Know (Tim Demo / September 2002) DR9 -0.20 дБ -10.81 дБ 4:15 02-Somewhere Only We Know (Demo / December 2002) DR7 -0.20 дБ -9.31 дБ 4:37 03-Bend And Break (Demo / April 2002) DR9 -0.20 дБ -10.63 дБ 3:15 04-We Might As Well Be Strangers (Tim Demo / September 2003) DR8 -0.20 дБ -11.30 дБ 3:28 05-Everybody's Changing (Demo / July 2002) DR8 -0.20 дБ -9.78 дБ 3:50 06-Your Eyes Open (Demo/ April 2002) DR10 -0.43 дБ -12.86 дБ 5:28 07-She Has No Time (Demo / October 2002) DR8 -0.20 дБ -11.70 дБ 3:43 08-Can't Stop Now (Demo / January 2003) DR8 -0.30 дБ -10.62 дБ 5:04 09-Sunshine (Demo / February 2002) DR8 -0.20 дБ -12.13 дБ 4:51 10-This Is The Last Time (Demo / May 2002) DR9 -0.21 дБ -10.61 дБ 6:23 11-On A Day Like Today (Tim Demo / September 2003) DR7 -0.22 дБ -10.29 дБ 4:38 12-Untitled 1 (Tim Demo / May 2002) DR7 -0.20 дБ -12.61 дБ 4:39 13-Bedshaped (Demo / October 2002) -------------------------------------------------------------------------------- Количество треков: 13 Реальные значения DR: DR8 Частота: 96000 Гц Каналов: 2 Разрядность: 24 Битрейт: 2389 кбит/с Кодек: FLAC ================================================================================
Время раздачи: 24/7 (минимум до появления первых 3-5 скачавших, на раздачи не возвращаюсь) Первое правило участника файлообмена: "Скачал сам - дай скачать другому!"

Всего файлов в раздаче: 38 
Disc 1\01. Somewhere Only We Know.flac86.88 MB
Disc 1\02. Bend And Break.flac80.44 MB
Disc 1\03. We Might As Well Be Strangers.flac66.39 MB
Disc 1\04. Everybody's Changing.flac80.50 MB
Disc 1\05. Your Eyes Open.flac74.97 MB
Disc 1\06. She Has No Time.flac118.62 MB
Disc 1\07. Can't Stop Now.flac80.58 MB
Disc 1\08. Sunshine.flac89.03 MB
Disc 1\09. This Is The Last Time.flac77.32 MB
Disc 1\10. On A Day Like Today.flac118.22 MB
Показать все файлы

Похожие раздачи по запросу - Keane
Сегодня magnet Keane - Hopes And Fears 20 (2024) MP3 371.17 MB ↑ 0 ↓ 0

Кто качает (только для создателя раздачи и модераторов): Локальные пиры отсутствуют

Комментарии


Зарегистрируйтесь чтобы добавить комментарий
Торрент клиент
byTorrent - программа для загрузки торрент-файлов.

Скачать byTorrent.exe (1,5 МБ)

Скачать byTorrent.zip (0,6 МБ)

Поддержи torrent.by
российских рублей
(300 российских рублей это 4$)

Обратная связь rss

End game ©