↑↓torrent.by
Поиск
Логин:  Регистрация
Пароль:

Все любят Жанну / Tout le monde aime Jeanne / Everybody Loves Jeanne (2022) BDRip 720p от DoMiNo & селезень | D

download Скачать торрент-файл   magnet Магнитная ссылка Размер: 3.84 GB Добавлен: 2024-05-17 17:00
Пиры будут получены из сети DHT
Последний сидер был замечен 2024-06-08 17:36
Информация о фильме Название: Все любят Жанну Оригинальное название: Tout le monde aime Jeanne / Everybody Loves Jeanne Год выхода: 2022 Жанр: драма, мелодрама, комедия Режиссер: Селин Дево В ролях: Бланш Гарден, Лоран Лафитт, Максанс Туаль, Нуну Лопеш, Марта Келлер, Самира Седира, Пэтти Хэннок, Педро Ласерда О фильме: Жанна летит в Лиссабон, но не одна. В аэропорту она встречает мужчину. На носу очки, в руках розовый пакет-майка. Они откуда-то знакомы, но Жанна никак не может вспомнить откуда. Столица встречает ее живописными видами и ярким солнцем. Самое время для курортного романа. Надо лишь привести в порядок «бабушкину» квартиру. И для этого у нее есть подходящий кандидат. Страна: Франция, Португалия Студия: Canal+ , Centre National du Cinéma, Ciclic-Region Centre-Val de Loire Продолжительность: 01:36:50 Перевод: Дублированный | Pride Production Субтитры: Английские, французские Файл Формат: Matroska Качество: BDRip 720p Видео: 1280x536 at 24.000 fps, x264@L4.1, ~4644 kbps Аудио 1: AC3, 6 ch, ~384 kbps - | Русский | Аудио 2: AC3, 6 ch, ~640 kbps - | Французский | Формат субтитров: softsub (SRT) ***Рип от: -=DoMiNo=-
[+] M/IGeneral Unique ID : 56948906493201591980221358188289177992 (0x2AD7F5DED7579689A82DC70FE449B988) Complete name : R:Everybody.Loves.Jeanne.2022.DUB.BDRip.720p.x264.seleZen.mkv Format : Matroska Format version : Version 4 File size : 3.84 GiB Duration : 1 h 36 min Overall bit rate : 5 663 kb/s Frame rate : 24.000 FPS Movie name : Everybody.Loves.Jeanne.2022.DUB.BDRip.720p.x264.seleZen Encoded date : 2023-11-30 09:44:27 UTC Writing application : mkvmerge v80.0 ('Roundabout') 64-bit Writing library : libebml v1.4.4 + libmatroska v1.7.1 Cover : Yes Attachments : cover.jpg / small_cover.jpg Video ID : 1 Format : AVC Format/Info : Advanced Video Codec Format profile : High@L4.1 Format settings : CABAC / 12 Ref Frames Format settings, CABAC : Yes Format settings, Reference : 12 frames Codec ID : V_MPEG4/ISO/AVC Duration : 1 h 36 min Bit rate : 4 644 kb/s Width : 1 280 pixels Height : 536 pixels Display aspect ratio : 2.40:1 Frame rate mode : Constant Frame rate : 24.000 FPS Color space : YUV Chroma subsampling : 4:2:0 Bit depth : 8 bits Scan type : Progressive Bits/(Pixel*Frame) : 0.282 Stream size : 3.14 GiB (82%) Title : -=DoMiNo=- Writing library : x264 core 164 r3172 c1c9931 Encoding settings : cabac=1 / ref=12 / deblock=1:-2:-2 / analyse=0x3:0x133 / me=umh / subme=10 / psy=1 / psy_rd=1.00:0.00 / mixed_ref=1 / me_range=32 / chroma_me=1 / trellis=2 / 8x8dct=1 / cqm=0 / deadzone=21,11 / fast_pskip=0 / chroma_qp_offset=-2 / threads=17 / lookahead_threads=4 / sliced_threads=0 / nr=0 / decimate=1 / interlaced=0 / bluray_compat=0 / constrained_intra=0 / bframes=12 / b_pyramid=2 / b_adapt=2 / b_bias=0 / direct=3 / weightb=1 / open_gop=0 / weightp=2 / keyint=250 / keyint_min=24 / scenecut=40 / intra_refresh=0 / rc_lookahead=60 / rc=crf / mbtree=0 / crf=17.5 / qcomp=0.60 / qpmin=0 / qpmax=69 / qpstep=4 / vbv_maxrate=50000 / vbv_bufsize=62500 / crf_max=0.0 / nal_hrd=none / filler=0 / ip_ratio=1.40 / pb_ratio=1.30 / aq=3:0.90 Language : English Default : Yes Forced : No Audio #1 ID : 2 Format : AC-3 Format/Info : Audio Coding 3 Commercial name : Dolby Digital Codec ID : A_AC3 Duration : 1 h 36 min Bit rate mode : Constant Bit rate : 384 kb/s Channel(s) : 6 channels Channel layout : L R C LFE Ls Rs Sampling rate : 48.0 kHz Frame rate : 31.250 FPS (1536 SPF) Compression mode : Lossy Stream size : 266 MiB (7%) Title : Дублированный | Pride Production Language : Russian Service kind : Complete Main Default : Yes Forced : No Audio #2 ID : 3 Format : AC-3 Format/Info : Audio Coding 3 Commercial name : Dolby Digital Codec ID : A_AC3 Duration : 1 h 36 min Bit rate mode : Constant Bit rate : 640 kb/s Channel(s) : 6 channels Channel layout : L R C LFE Ls Rs Sampling rate : 48.0 kHz Frame rate : 31.250 FPS (1536 SPF) Compression mode : Lossy Stream size : 443 MiB (11%) Title : Original Language : French Service kind : Complete Main Default : No Forced : No Text #1 ID : 4 Format : UTF-8 Codec ID : S_TEXT/UTF8 Codec ID/Info : UTF-8 Plain Text Duration : 1 h 31 min Bit rate : 54 b/s Frame rate : 0.215 FPS Count of elements : 1184 Stream size : 36.7 KiB (0%) Language : English Default : No Forced : No Text #2 ID : 5 Format : UTF-8 Codec ID : S_TEXT/UTF8 Codec ID/Info : UTF-8 Plain Text Duration : 1 h 36 min Bit rate : 41 b/s Frame rate : 0.195 FPS Count of elements : 1130 Stream size : 29.7 KiB (0%) Language : French Default : No Forced : No Menu 00:00:00.000 : en:Chapter 01 00:10:01.916 : en:Chapter 02 00:18:03.541 : en:Chapter 03 00:25:45.458 : en:Chapter 04 00:32:38.625 : en:Chapter 05 00:42:45.541 : en:Chapter 06 00:51:36.083 : en:Chapter 07 00:59:07.416 : en:Chapter 08 01:05:57.916 : en:Chapter 09 01:15:12.750 : en:Chapter 10 01:24:24.291 : en:Chapter 11 01:32:57.375 : en:Chapter 12
Релиз: Присоединяйся к: Кликай на баннеры.

Всего файлов в раздаче: 1 
Everybody.Loves.Jeanne.2022.DUB.BDRip.720p.x264.seleZen.mkv3.84 GB

Похожие раздачи по запросу - Все
Сегодня magnet Молитвы для здоровья. Все самые важные молитвы, чтобы уберечь себя и близких (2020) PDF, FB2, EPUB, MOBI, TXT 5.01 MB ↑ 0 ↓ 0
Сегодня magnet Домашние молитвы. На все случаи жизни и на каждый день (2020) PDF, FB2, EPUB, MOBI, TXT 6.10 MB ↑ 0 ↓ 0
2024-06-12 magnet Breaking Band - Во все тяжкие (2024) MP3 99.78 MB ↑ 0 ↓ 0
2024-06-03 magnet Футбол. Все на Матч! Итоги Финала Лиги Чемпионов [01.06] (2024) IPTV 720р 910.56 MB ↑ 0 ↓ 0
2024-06-01 magnet Угроза / Все имена Бога / Todos los nombres de Dios / All the Names of God (2023) HDRip-AVC от DoMiNo & селезень | D, P2 1.95 GB ↑ 0 ↓ 0
2024-05-26 magnet Деньги решают все / Money talks (1997) WEB-DLRip-AVC от DoMiNo | P 745.26 MB ↑ 0 ↓ 0
2024-05-26 magnet Деньги решают всё / Money Talks (1997) BDRip 720p от msltel | P, P2, A 5.14 GB ↑ 0 ↓ 0

Кто качает (только для создателя раздачи и модераторов): Локальные пиры отсутствуют

Комментарии


Зарегистрируйтесь чтобы добавить комментарий
Торрент клиент
byTorrent - программа для загрузки торрент-файлов.

Скачать byTorrent.exe (1,5 МБ)

Скачать byTorrent.zip (0,6 МБ)

Поддержи torrent.by
российских рублей
(300 российских рублей это 4$)

Обратная связь rss

End game ©