↑↓torrent.by
Поиск
Логин:  Регистрация
Пароль:

Охотники за привидениями: Леденящий ужас / Мисливці на привидів: Крижана імперія / Ghostbusters: Frozen Empire (2024) WEB-DL 1080p | D | UKR

download Скачать торрент-файл   magnet Магнитная ссылка Размер: 6.13 GB Добавлен: 2024-05-17 17:00
Пиры будут получены из сети DHT
Последний сидер был замечен 2024-06-18 03:33
Информация о фильме Название: Охотники за привидениями: Леденящий ужас Оригинальное название: Ghostbusters: Frozen Empire Год выхода: 2024 Жанр: фантастика, фэнтези, комедия, приключения Режиссер: Гил Кинан В ролях: Пол Радд, Кэрри Кун, Финн Вулфхард, Маккенна Грейс, Кумэйл Нанджиани, Пэттон Освальт, Селеста О’Коннор, Логан Ким, Эмили Элин Линд, Джеймс Акастер О фильме: Семья Спенглеров возвращается в легендарную пожарную часть в Нью-Йорке. Страна: США, Канада, Великобритания Продолжительность: 01:56:44 Перевод: Дублированный | Le Doyen (Украинский) Файл Кодек: x.264 Качество: WEB-DL 1080p Видео: AVC, 1920x800 (2.40:1),23.976 fps, 6496 kb/s Аудио 1: E-AC3, 48.0 kHz, 6 ch, 384 kb/s | UKR Аудио 2: E-AC3, 48.0 kHz, 6 ch, 640 kb/s | ENG Субтитры: украинские (forced, full), английские (full, SDH)
[+] MIGeneral Unique ID : 212320685510978295163914382874222006726 (0x9FBB7A02B599C6216EC89C7CC7C011C6) Complete name : Ghostbusters.Frozen.Empire.2024.1080p.x264.WEB-DL.ac3.ukr.eng.mkv Format : Matroska Format version : Version 4 File size : 6.13 GiB Duration : 1 h 56 min Overall bit rate : 7 517 kb/s Frame rate : 23.976 FPS Encoded date : 2024-05-16 13:53:31 UTC Writing application : mkvmerge v37.0.0 ('Leave It') 64-bit Writing library : libebml v1.3.9 + libmatroska v1.5.2 Video ID : 1 Format : AVC Format/Info : Advanced Video Codec Format profile : High@L4 Format settings : CABAC / 4 Ref Frames Format settings, CABAC : Yes Format settings, Reference fra : 4 frames Codec ID : V_MPEG4/ISO/AVC Duration : 1 h 56 min Bit rate mode : Constant Bit rate : 6 496 kb/s Nominal bit rate : 10 000 kb/s Width : 1 920 pixels Height : 800 pixels Display aspect ratio : 2.40:1 Frame rate mode : Constant Frame rate : 23.976 (24000/1001) FPS Color space : YUV Chroma subsampling : 4:2:0 Bit depth : 8 bits Scan type : Progressive Bits/(Pixel*Frame) : 0.176 Stream size : 5.30 GiB (86%) Language : English Default : Yes Forced : No Color range : Limited Color primaries : BT.709 Transfer characteristics : BT.709 Matrix coefficients : BT.709 Audio #1 ID : 2 Format : E-AC-3 Format/Info : Enhanced AC-3 Commercial name : Dolby Digital Plus Codec ID : A_EAC3 Duration : 1 h 55 min Bit rate mode : Constant Bit rate : 384 kb/s Channel(s) : 6 channels Channel layout : L R C LFE Ls Rs Sampling rate : 48.0 kHz Frame rate : 31.250 FPS (1536 SPF) Compression mode : Lossy Stream size : 316 MiB (5%) Title : DUB | LeDoyen Language : Ukrainian Service kind : Complete Main Default : Yes Forced : No Audio #2 ID : 3 Format : E-AC-3 Format/Info : Enhanced AC-3 Commercial name : Dolby Digital Plus Codec ID : A_EAC3 Duration : 1 h 56 min Bit rate mode : Constant Bit rate : 640 kb/s Channel(s) : 6 channels Channel layout : L R C LFE Ls Rs Sampling rate : 48.0 kHz Frame rate : 31.250 FPS (1536 SPF) Compression mode : Lossy Stream size : 534 MiB (9%) Title : Original Language : English Service kind : Complete Main Default : No Forced : No Text #1 ID : 4 Format : UTF-8 Codec ID : S_TEXT/UTF8 Codec ID/Info : UTF-8 Plain Text Duration : 1 h 53 min Bit rate : 0 b/s Frame rate : 0.001 FPS Count of elements : 7 Stream size : 464 Bytes (0%) Title : Forced Language : Ukrainian Default : Yes Forced : Yes Text #2 ID : 5 Format : UTF-8 Codec ID : S_TEXT/UTF8 Codec ID/Info : UTF-8 Plain Text Duration : 1 h 53 min Bit rate : 88 b/s Frame rate : 0.194 FPS Count of elements : 1328 Stream size : 73.6 KiB (0%) Language : Ukrainian Default : No Forced : No Text #3 ID : 6 Format : UTF-8 Codec ID : S_TEXT/UTF8 Codec ID/Info : UTF-8 Plain Text Duration : 1 h 47 min Bit rate : 55 b/s Frame rate : 0.236 FPS Count of elements : 1523 Stream size : 43.7 KiB (0%) Language : English Default : No Forced : No Text #4 ID : 7 Format : UTF-8 Codec ID : S_TEXT/UTF8 Codec ID/Info : UTF-8 Plain Text Duration : 1 h 54 min Bit rate : 66 b/s Frame rate : 0.296 FPS Count of elements : 2030 Stream size : 55.5 KiB (0%) Title : SDH Language : English Default : No Forced : No Menu 00:00:00.000 : en:Scene 1 01:49:13.000 : en:End Credits
[+] Скриншоты

Всего файлов в раздаче: 1 
Ghostbusters.Frozen.Empire.2024.1080p.x264.WEB-DL.ac3.ukr.eng.mkv6.13 GB

Похожие раздачи по запросу - Охотники
Сегодня magnet Охотники за привидениями: Леденящий ужас / Ghostbusters: Frozen Empire (2023) BDRip 1080p от ExKinoRay | D, P, A 13.27 GB ↑ 0 ↓ 22
Вчера magnet Охотники за привидениями: Леденящий ужас / Ghostbusters: Frozen Empire (2024) BDRip 720p от DoMiNo & селезень | D | Soundmasters, MovieDalen 4.08 GB ↑ 2 ↓ 6
Вчера magnet Охотники за привидениями: Леденящий ужас / Ghostbusters: Frozen Empire (2024) BDRip от DoMiNo & селезень | D | Soundmasters, MovieDalen 1.45 GB ↑ 1 ↓ 2
Вчера magnet Охотники за привидениями: Леденящий ужас / Ghostbusters: Frozen Empire (2024) BDRip 1080p от селезень | D | MovieDalen 8.86 GB ↑ 0 ↓ 7
Вчера magnet Охотники за привидениями: Леденящий ужас / Ghostbusters: Frozen Empire (2024) UHD BDRemux 2160p от селезень | 4K | HDR | Dolby Vision Profile 7 | D 66.82 GB ↑ 0 ↓ 1
2024-06-20 magnet Охотники за привидениями: Леденящий ужас / Ghostbusters: Frozen Empire (2024) BDRip от MegaPeer | D | iTunes 1.46 GB ↑ 0 ↓ 4
2024-06-20 magnet Охотники за привидениями: Леденящий ужас / Ghostbusters: Frozen Empire (2024) BDRip-AVC от New-Team | D 2.18 GB ↑ 58 ↓ 6

Комментарии


Зарегистрируйтесь чтобы добавить комментарий
Торрент клиент
byTorrent - программа для загрузки торрент-файлов.

Скачать byTorrent.exe (1,5 МБ)

Скачать byTorrent.zip (0,6 МБ)

Поддержи torrent.by
российских рублей
(300 российских рублей это 4$)

Обратная связь rss

End game ©