↑↓torrent.by
Поиск
Логин:  Регистрация
Пароль:

Удалённый контроль / Remote Control (1988) BDRemux 1080p | P, P2, А

download Скачать торрент-файл   magnet Магнитная ссылка Размер: 20.64 GB Добавлен: 2024-05-18 11:00
Пиры будут получены из сети DHT
Последний сидер был замечен 2024-05-22 17:36
Страна: США Студия: Vista Organization Жанр: ужасы, фантастика, комедия Год выпуска: 1988 Продолжительность: 01:28:06 Перевод 1: Профессиональный (многоголосый закадровый) Инис Перевод 2: Профессиональный (двухголосый закадровый) Рен-тв Перевод 3: Авторский (одноголосый закадровый) Антон Алексеев Субтитры: английские Оригинальная аудиодорожка: английский Режиссер: Джефф Либерман / Jeff Lieberman В ролях: Кевин Диллон, Дебора Гудрич, Кристофер Уинн, Фрэнк Бэддор, Дженнифер Тилли, Каарен Ли, Берт Ремсен, Джеролд Пирсон, Дженнифер Бьюкэнэн, Дебора Дауни, Уилл Най, Мэрлин Адамс, Дик Уорлок, Энн Уолкер, Майк Пневски Описание: Главный герой Космо — молодой парень, работающий в магазине видеопроката. Однажды в его руки попадает кассета со старым научно-фантастическим фильмом 50-ых годов. Кино не обладает художественной ценностью, но у него есть другое преимущество — оно промывает мозги тем, кто его посмотрел, превращая зрителей в зомби, которыми управляют через удаленный контроль. Космо и его друзья понимают, к чему приведет распространение фильма, и пытаются изъять все копии кассеты, пока они не разошлись по всему миру. Релиз от: R.G. Goldenshara Тип релиза: BDRemux 1080p Контейнер: MKV Видео: MPEG-4 AVC, 32.5 Мбит/с, 1920x1080, 23.976 кадр/с Аудио 1: Russian; AC3; 48.0 KHz; 2ch; 192 Kbps || MVO Инис Аудио 2: Russian; AC3; 48.0 KHz; 2ch; 224 Kbps || DVO Рен-ТВ Аудио 3: Russian; AC3; 48.0 KHz; 2ch; 192 Kbps || AVO Антон Алексеев Аудио 4: English; AC3; 48.0 KHz; 2ch; 192 Kbps || Original Аудио 5: English; AC3; 48.0 KHz; 2ch; 192 Kbps || Audio commentary with director Jeff Lieberman
[+] MediaInfo General Unique ID : 274195623680175016876960050565913194139 (0xCE4827FE76B6A18603D9210EF6DB2E9B) Complete name : H:Удаленный контроль.1988.BDRemux.1080p.R.G. Goldenshara.mkv Format : Matroska Format version : Version 4 File size : 20.6 GiB Duration : 1 h 28 min Overall bit rate mode : Variable Overall bit rate : 33.5 Mb/s Movie name : Remote Control 1988 Encoded date : UTC 2022-11-10 18:40:11 Writing application : mkvmerge v56.0.0 ('Strasbourg / St. Denis') 64-bit Writing library : libebml v1.4.2 + libmatroska v1.6.4 Video ID : 1 ID in the original source m : 4113 (0x1011) Format : AVC Format/Info : Advanced Video Codec Format profile : High@L4.1 Format settings : CABAC / 4 Ref Frames Format settings, CABAC : Yes Format settings, Reference : 4 frames Format settings, GOP : M=3, N=24 Codec ID : V_MPEG4/ISO/AVC Duration : 1 h 28 min Bit rate mode : Variable Bit rate : 32.5 Mb/s Maximum bit rate : 34.0 Mb/s Width : 1 920 pixels Height : 1 080 pixels Display aspect ratio : 16:9 Frame rate mode : Constant Frame rate : 23.976 (24000/1001) FPS Standard : NTSC Color space : YUV Chroma subsampling : 4:2:0 Bit depth : 8 bits Scan type : Progressive Bits/(Pixel*Frame) : 0.655 Stream size : 20.0 GiB (97%) Language : English Default : Yes Forced : No Color range : Limited Color primaries : BT.709 Transfer characteristics : BT.709 Matrix coefficients : BT.709 Original source medium : Blu-ray Audio #1 ID : 2 Format : AC-3 Format/Info : Audio Coding 3 Commercial name : Dolby Digital Codec ID : A_AC3 Duration : 1 h 28 min Bit rate mode : Constant Bit rate : 192 kb/s Channel(s) : 2 channels Channel layout : L R Sampling rate : 48.0 kHz Frame rate : 31.250 FPS (1536 SPF) Compression mode : Lossy Stream size : 121 MiB (1%) Title : MVO Инис Language : Russian Service kind : Complete Main Default : Yes Forced : No Audio #2 ID : 3 Format : AC-3 Format/Info : Audio Coding 3 Commercial name : Dolby Digital Codec ID : A_AC3 Duration : 1 h 28 min Bit rate mode : Constant Bit rate : 224 kb/s Channel(s) : 2 channels Channel layout : L R Sampling rate : 48.0 kHz Frame rate : 31.250 FPS (1536 SPF) Compression mode : Lossy Stream size : 141 MiB (1%) Title : DVO Рен-ТВ Language : Russian Service kind : Complete Main Default : No Forced : No Audio #3 ID : 4 Format : AC-3 Format/Info : Audio Coding 3 Commercial name : Dolby Digital Codec ID : A_AC3 Duration : 1 h 28 min Bit rate mode : Constant Bit rate : 192 kb/s Channel(s) : 2 channels Channel layout : L R Sampling rate : 48.0 kHz Frame rate : 31.250 FPS (1536 SPF) Compression mode : Lossy Stream size : 121 MiB (1%) Title : AVO Антон Алексеев Language : Russian Service kind : Complete Main Default : No Forced : No Audio #4 ID : 5 ID in the original source m : 4352 (0x1100) Format : AC-3 Format/Info : Audio Coding 3 Commercial name : Dolby Digital Codec ID : A_AC3 Duration : 1 h 28 min Bit rate mode : Constant Bit rate : 192 kb/s Channel(s) : 2 channels Channel layout : L R Sampling rate : 48.0 kHz Frame rate : 31.250 FPS (1536 SPF) Compression mode : Lossy Stream size : 121 MiB (1%) Language : English Service kind : Complete Main Default : No Forced : No Original source medium : Blu-ray Audio #5 ID : 6 Format : AC-3 Format/Info : Audio Coding 3 Commercial name : Dolby Digital Codec ID : A_AC3 Duration : 1 h 28 min Bit rate mode : Constant Bit rate : 192 kb/s Channel(s) : 2 channels Channel layout : L R Sampling rate : 48.0 kHz Frame rate : 31.250 FPS (1536 SPF) Compression mode : Lossy Stream size : 121 MiB (1%) Title : Audio commentary with director Jeff Lieberman Language : English Service kind : Complete Main Default : No Forced : No Text ID : 7 Format : UTF-8 Codec ID : S_TEXT/UTF8 Codec ID/Info : UTF-8 Plain Text Duration : 1 h 23 min Bit rate : 43 b/s Count of elements : 909 Stream size : 26.9 KiB (0%) Language : English Default : No Forced : No Menu 00:00:00.000 : Chapter 01 00:06:33.976 : Chapter 02 00:13:42.947 : Chapter 03 00:24:00.981 : Chapter 04 00:30:28.910 : Chapter 05 00:36:05.329 : Chapter 06 00:42:26.001 : Chapter 07 00:47:23.173 : Chapter 08 00:55:56.311 : Chapter 09 01:00:34.714 : Chapter 10 01:04:06.968 : Chapter 11 01:11:02.174 : Chapter 12 01:17:12.002 : Chapter 13 01:24:45.789 : Chapter 14
[+] Скриншоты

Всего файлов в раздаче: 1 
Удаленный контроль.1988.BDRemux.1080p.R.G. Goldenshara.mkv20.64 GB

Кто качает (только для создателя раздачи и модераторов): Локальные пиры отсутствуют

Комментарии


Зарегистрируйтесь чтобы добавить комментарий
Торрент клиент
byTorrent - программа для загрузки торрент-файлов.

Скачать byTorrent.exe (1,5 МБ)

Скачать byTorrent.zip (0,6 МБ)

Поддержи torrent.by
российских рублей
(300 российских рублей это 4$)

Обратная связь rss

End game ©