↑↓torrent.by
Поиск
Логин:  Регистрация
Пароль:

Люди Икс ’97 / X-Men '97 [S01] (2024) WEB-DL 1080p от Jaskier | P

download Скачать торрент-файл   magnet Магнитная ссылка Размер: 18.46 GB Добавлен: 2024-05-18 11:00
Пиры будут получены из сети DHT
Последний сидер был замечен 2024-06-21 00:15
Информация о фильме Название: Люди Икс ’97 Оригинальное название: X-Men '97 Год выхода: 2024 Жанр: мультфильм, фантастика, фэнтези, боевик, приключения Режиссер: Джейк Касторена, Чейз Конли В ролях: Дженнифер Хейл, Рэй Чейз, Ленор Занн, Кэл Додд, Джордж Бьюза, Джон Пол Карлиак, Адриан Хью, Эйджей Локасио, Элисон Сили-Смит, Мэттью Уотерсон О фильме: Группа мутантов использует свои сверхъестественные способности, чтобы защитить мир, который их ненавидит и боится; им предстоит столкнуться с как никогда раньше опасным и неожиданным новым будущим. Страна: США, Южная Корея Студия: Marvel Animation, Marvel Studios, The Walt Disney Company Продолжительность: ~00:30:00 Перевод: Профессиональный (многоголосый закадровый) Jaskier Файл Кодек: MKV Качество: WEB-DL 1080p Видео: AVC, 1920x1080 (16:9), 24.000 fps, ~7177 kbps Звук: Аудио 1: Русский, AC-3, 48 kHz, 6 ch, 384 kbps | Jaskier Аудио 2: Английский, E-AC-3-JOC, 48 kHz, 6 ch, 768 kbps Субтитры: Английские (SDH) Семпл
[+] Список серий 01. To Me, My X-Men / Ко мне, мои Люди Икс 02. Mutant Liberation Begins / Начало освобождения мутантов 03. Fire Made Flesh / Огонь, ставший плотью 04. Motendo/Lifedeath - Part 1 / Мотендо/Жизнь-Смерть. Часть первая 05. Remember It / Запомни 06. Lifedeath - Part 2 / Жизнь-Смерть. Часть вторая 07. Bright Eyes / Ясные глаза 08. Tolerance Is Extinction - Part 1 / Толерантность - это вымирание. Часть первая 09. Tolerance Is Extinction - Part 2 / Толерантность - это вымирание. Часть вторая 10. Tolerance Is Extinction - Part 3 / Толерантность - это вымирание. Часть третья
[+] MediaInfo General Unique ID : 242018581157127957576537766389053800680 (0xB613155030CFBECD84EB404CC3D240E8) Complete name : E:TorrentX-Men.97.S01.1080p.WEB.H264-Jaskierx-men.97.s01e01.1080p.web.h264-Jaskier.mkv Format : Matroska Format version : Version 4 File size : 1.81 GiB Duration : 30 min 30 s Overall bit rate mode : Variable Overall bit rate : 8 498 kb/s Frame rate : 24.000 FPS Encoded date : 2024-03-22 10:11:22 UTC Writing application : mkvmerge v6.6.0 ('The Edge Of The In Between') built on Dec 1 2013 17:55:00 Writing library : libebml v1.3.0 + libmatroska v1.4.1 Video ID : 1 Format : AVC Format/Info : Advanced Video Codec Format profile : High@L4 Format settings : CABAC / 4 Ref Frames Format settings, CABAC : Yes Format settings, Reference frames : 4 frames Codec ID : V_MPEG4/ISO/AVC Duration : 30 min 30 s Bit rate mode : Variable Bit rate : 7 177 kb/s Maximum bit rate : 12.7 Mb/s Width : 1 920 pixels Height : 1 080 pixels Display aspect ratio : 16:9 Frame rate mode : Constant Frame rate : 24.000 FPS Color space : YUV Chroma subsampling : 4:2:0 Bit depth : 8 bits Scan type : Progressive Bits/(Pixel*Frame) : 0.144 Time code of first frame : 00:00:00;00 Stream size : 1.53 GiB (84%) Default : Yes Forced : No Color range : Limited Color primaries : BT.709 Transfer characteristics : BT.709 Matrix coefficients : BT.709 Audio #1 ID : 2 Format : AC-3 Format/Info : Audio Coding 3 Commercial name : Dolby Digital Codec ID : A_AC3 Duration : 30 min 30 s Bit rate mode : Constant Bit rate : 384 kb/s Channel(s) : 6 channels Channel layout : L R C LFE Ls Rs Sampling rate : 48.0 kHz Frame rate : 31.250 FPS (1536 SPF) Compression mode : Lossy Stream size : 83.8 MiB (5%) Title : Jaskier Language : Russian Service kind : Complete Main Default : Yes Forced : No Audio #2 ID : 3 Format : E-AC-3 JOC Format/Info : Enhanced AC-3 with Joint Object Coding Commercial name : Dolby Digital Plus with Dolby Atmos Codec ID : A_EAC3 Duration : 30 min 30 s Bit rate mode : Constant Bit rate : 768 kb/s Channel(s) : 6 channels Channel layout : L R C LFE Ls Rs Sampling rate : 48.0 kHz Frame rate : 31.250 FPS (1536 SPF) Compression mode : Lossy Stream size : 168 MiB (9%) Title : Original Language : English Service kind : Complete Main Default : No Forced : No Complexity index : 16 Number of dynamic objects : 15 Bed channel count : 1 channel Bed channel configuration : LFE Text ID : 4 Format : UTF-8 Codec ID : S_TEXT/UTF8 Codec ID/Info : UTF-8 Plain Text Title : SDH Language : English Default : No Forced : No
[+] Скриншоты
Релиз от: Jaskier

Всего файлов в раздаче: 10 
x-men.97.s01e01.1080p.web.h264-Jaskier.mkv1.81 GB
x-men.97.s01e02.1080p.web.h264-Jaskier.mkv1.79 GB
x-men.97.s01e03.1080p.web.h264-Jaskier.mkv1.75 GB
x-men.97.s01e04.1080p.web.h264-Jaskier.mkv1.56 GB
x-men.97.s01e05.1080p.web.h264-Jaskier.mkv2.03 GB
x-men.97.s01e06.1080p.web.h2640-Jaskier.mkv1.78 GB
x-men.97.s01e07.1080p.web.h264-Jaskier.mkv1.82 GB
x-men.97.s01e08.1080p.web.h264-Jaskier.mkv1.84 GB
x-men.97.s01e09.1080p.web.h264-Jaskier.mkv1.72 GB
x-men.97.s01e10.1080p.web.h264-Jaskier.mkv2.35 GB

Похожие раздачи по запросу - Люди
2024-06-11 magnet Последние люди / Les derniers hommes / The Last Men (2023) WEB-DLRip-AVC | L 1К2.70 GB ↑ 42 ↓ 3
2024-06-07 magnet Люди Икс '97 / X-Men '97 [S01] (2024) WEB-DLRip 1080p | D | Локализованная версия | Flarrow Films 18.56 GB ↑ 0 ↓ 0
2024-06-06 magnet Люди мафии / Made Men (1999) DVDRip от New-Team | P 1.11 GB ↑ 0 ↓ 0
2024-06-06 magnet Люди мафии / Made Men (1999) DVDRip-AVC от New-Team | P 1.46 GB ↑ 0 ↓ 0
2024-06-05 magnet Люди мафии / Made Men (1999) WEB-DLRip-AVC от New-Team | P 1.46 GB ↑ 0 ↓ 0
2024-06-05 magnet Люди мафии / Made Men (1999) WEB-DLRip 720p от New-Team | P, A 2.18 GB ↑ 0 ↓ 0
2024-06-03 magnet Люди в океане (1980) HDTVRip от New-Team 1.09 GB ↑ 0 ↓ 0

Комментарии


Зарегистрируйтесь чтобы добавить комментарий
Торрент клиент
byTorrent - программа для загрузки торрент-файлов.

Скачать byTorrent.exe (1,5 МБ)

Скачать byTorrent.zip (0,6 МБ)

Поддержи torrent.by
российских рублей
(300 российских рублей это 4$)

Обратная связь rss

End game ©