↑↓torrent.by
Поиск
Логин:  Регистрация
Пароль:

Охотники за привидениями: Леденящий ужас / Мисливці на привидів: Крижана імперія / Ghostbusters: Frozen Empire (2024) WEB-DL-HEVC 2160p | 4K | SDR | D | UKR

download Скачать торрент-файл   magnet Магнитная ссылка Размер: 12.87 GB Добавлен: 2024-05-18 17:00
Пиры будут получены из сети DHT
Последний сидер был замечен 2024-06-08 13:09
Информация о фильме Название: Охотники за привидениями: Леденящий ужас Оригинальное название: Ghostbusters: Frozen Empire Год выхода: 2024 Жанр: фантастика, фэнтези, комедия, приключения Режиссер: Гил Кинан В ролях: Пол Радд, Кэрри Кун, Финн Вулфхард, Маккенна Грейс, Кумэйл Нанджиани, Пэттон Освальт, Селеста О’Коннор, Логан Ким, Эмили Элин Линд, Джеймс Акастер О фильме: Семья Спенглеров возвращается в легендарную пожарную часть в Нью-Йорке. Страна: США, Канада, Великобритания Продолжительность: 01:56:44 Перевод: Дублированный | Le Doyen (Украинский) Файл Кодек: H.265 Качество: WEB-DL 2160p Видео: HEVC, 3840x1600 (2.40:1), 23.976 fps, 14,8 Mb/s Аудио 1: E-AC3, 48.0 kHz, 6 ch, 384 kb/s | UKR Аудио 2: E-AC3, 48.0 kHz, 6 ch, 640 kb/s | ENG Субтитры: украинские (forced, full), английские (full, SDH)
[+] MIGeneral Unique ID : 73467553692697566825378258842625782418 (0x3745560E90FA060E3BD8CA4B2BE03292) Complete name : Ghostbusters Frozen Empire (2024) WEB-DL 2160p SDR Ukr_Eng.mkv Format : Matroska Format version : Version 4 File size : 12.9 GiB Duration : 1 h 56 min Overall bit rate : 15.8 Mb/s Encoded date : UTC 2024-05-17 08:22:44 Writing application : mkvmerge v84.0 ('Sleeper') 64-bit Writing library : libebml v1.4.5 + libmatroska v1.7.1 Cover : Yes Attachments : Cover.jpg Video ID : 1 Format : HEVC Format/Info : High Efficiency Video Coding Format profile : Main@L5@Main Codec ID : V_MPEGH/ISO/HEVC Duration : 1 h 56 min Bit rate : 14.8 Mb/s Width : 3 840 pixels Height : 1 600 pixels Display aspect ratio : 2.40:1 Frame rate mode : Constant Frame rate : 23.976 (24000/1001) FPS Color space : YUV Chroma subsampling : 4:2:0 Bit depth : 8 bits Bits/(Pixel*Frame) : 0.100 Stream size : 12.0 GiB (94%) Default : Yes Forced : No Color range : Limited Color primaries : BT.709 Transfer characteristics : BT.709 Matrix coefficients : BT.709 Audio #1 ID : 2 Format : E-AC-3 Format/Info : Enhanced AC-3 Commercial name : Dolby Digital Plus Codec ID : A_EAC3 Duration : 1 h 55 min Bit rate mode : Constant Bit rate : 384 kb/s Channel(s) : 6 channels Channel layout : L R C LFE Ls Rs Sampling rate : 48.0 kHz Frame rate : 31.250 FPS (1536 SPF) Compression mode : Lossy Stream size : 316 MiB (2%) Title : DUB (Le Doyen) Language : Ukrainian Service kind : Complete Main Default : Yes Forced : No Audio #2 ID : 3 Format : E-AC-3 Format/Info : Enhanced AC-3 Commercial name : Dolby Digital Plus Codec ID : A_EAC3 Duration : 1 h 56 min Bit rate mode : Constant Bit rate : 640 kb/s Channel(s) : 6 channels Channel layout : L R C LFE Ls Rs Sampling rate : 48.0 kHz Frame rate : 31.250 FPS (1536 SPF) Compression mode : Lossy Stream size : 534 MiB (4%) Title : Original Language : English Service kind : Complete Main Default : No Forced : No Text #1 ID : 4 Format : UTF-8 Codec ID : S_TEXT/UTF8 Codec ID/Info : UTF-8 Plain Text Duration : 1 h 53 min Bit rate : 0 b/s Count of elements : 7 Stream size : 464 Bytes (0%) Title : Forced Language : Ukrainian Default : Yes Forced : No Text #2 ID : 5 Format : UTF-8 Codec ID : S_TEXT/UTF8 Codec ID/Info : UTF-8 Plain Text Duration : 1 h 53 min Bit rate : 88 b/s Count of elements : 1328 Stream size : 73.6 KiB (0%) Title : Full Language : Ukrainian Default : No Forced : No Text #3 ID : 6 Format : UTF-8 Codec ID : S_TEXT/UTF8 Codec ID/Info : UTF-8 Plain Text Duration : 1 h 47 min Bit rate : 55 b/s Count of elements : 1523 Stream size : 43.7 KiB (0%) Title : Full Language : English Default : No Forced : No Text #4 ID : 7 Format : UTF-8 Codec ID : S_TEXT/UTF8 Codec ID/Info : UTF-8 Plain Text Duration : 1 h 54 min Bit rate : 66 b/s Count of elements : 2030 Stream size : 55.5 KiB (0%) Title : SDH Language : English Default : No Forced : No
[+] Скриншоты

Всего файлов в раздаче: 1 
Ghostbusters Frozen Empire (2024) WEB-DL 2160p SDR Ukr_Eng.mkv12.87 GB

Похожие раздачи по запросу - Охотники
Сегодня magnet Охотники за привидениями: Леденящий ужас / Ghostbusters: Frozen Empire (2024) BDRip-AVC от New-Team | D 2.18 GB ↑ 0 ↓ 0
2024-06-14 magnet Охотники за привидениями: Леденящий ужас / Ghostbusters: Frozen Empire (2024) UHD WEB-DL-HEVC 2160p от селезень | 4K | SDR | D, P, A 11.39 GB ↑ 0 ↓ 1
2024-06-13 magnet Охотники за привидениями: Леденящий ужас / Ghostbusters: Frozen Empire (2024) WEB-DLRip от MegaPeer | D | iTunes 1.46 GB ↑ 0 ↓ 0
2024-06-05 magnet Охотники за привидениями: Леденящий ужас / Ghostbusters: Frozen Empire (2024) WEB-DLRip от Generalfilm | КПК | D 442.65 MB ↑ 0 ↓ 0
2024-05-27 magnet Охотники за привидениями / Ghostbusters (2016) WEB-DL 1080p | D | Open Matte | Theatrical Cut 8.92 GB ↑ 0 ↓ 1
2024-05-23 magnet Охотники за головами / Hodejegerne (2011) BDRip-AVC | D 2.91 GB ↑ 0 ↓ 0
2024-05-23 magnet Охотники за головами / Hodejegerne (2011) BDRip 1080p | D 4.37 GB ↑ 0 ↓ 0

Кто качает (только для создателя раздачи и модераторов): Локальные пиры отсутствуют

Комментарии


Зарегистрируйтесь чтобы добавить комментарий
Торрент клиент
byTorrent - программа для загрузки торрент-файлов.

Скачать byTorrent.exe (1,5 МБ)

Скачать byTorrent.zip (0,6 МБ)

Поддержи torrent.by
российских рублей
(300 российских рублей это 4$)

Обратная связь rss

End game ©