↑↓torrent.by
Поиск
Логин:  Регистрация
Пароль:

Охотники за привидениями: Леденящий ужас / Мисливці на привидів: Крижана імперія / Ghostbusters: Frozen Empire (2024) WEB-DL-HEVC 2160p | 4K | HDR | Dolby Vision Profile 8 | D | UKR

download Скачать торрент-файл   magnet Магнитная ссылка Размер: 20.25 GB Добавлен: 2024-05-18 17:00
Пиры будут получены из сети DHT
Последний сидер был замечен 2024-05-24 18:13
Информация о фильме Название: Охотники за привидениями: Леденящий ужас Оригинальное название: Ghostbusters: Frozen Empire Год выхода: 2024 Жанр: фантастика, фэнтези, комедия, приключения Режиссер: Гил Кинан В ролях: Пол Радд, Кэрри Кун, Финн Вулфхард, Маккенна Грейс, Кумэйл Нанджиани, Пэттон Освальт, Селеста О’Коннор, Логан Ким, Эмили Элин Линд, Джеймс Акастер О фильме: Семья Спенглеров возвращается в легендарную пожарную часть в Нью-Йорке. Страна: США, Канада, Великобритания Продолжительность: 01:56:44 Перевод: Дублированный | Le Doyen (Украинский) Файл Кодек: H.265 Качество: WEB-DL 2160p Видео: HEVC, HDR, Dolby Vision, 3840x1604 (2.40:1), 23.976 fps, 24,2 Mb/s Аудио 1: E-AC3, 48.0 kHz, 6 ch, 384 kb/s | UKR Аудио 2: E-AC3, 48.0 kHz, 6 ch, 640 kb/s | ENG Субтитры: украинские (forced, full), английские (full, SDH)
[+] MIGeneral Unique ID : 50931578336353086649954867811019797077 (0x265110AFDA1D0F76E7752221328E3255) Complete name : Ghostbusters Frozen Empire (2024) WEB-DL 2160p HDR DV P8 Ukr_Eng.mkv Format : Matroska Format version : Version 4 File size : 20.2 GiB Duration : 1 h 56 min Overall bit rate : 24.8 Mb/s Encoded date : UTC 2024-05-17 08:30:02 Writing application : mkvmerge v84.0 ('Sleeper') 64-bit Writing library : libebml v1.4.5 + libmatroska v1.7.1 Cover : Yes Attachments : Cover.jpg Video ID : 1 Format : HEVC Format/Info : High Efficiency Video Coding Format profile : Main 10@L5@High HDR format : Dolby Vision, Version 1.0, dvhe.08.06, BL+RPU, HDR10 compatible / SMPTE ST 2094 App 4, Version 1, HDR10+ Profile B compatible Codec ID : V_MPEGH/ISO/HEVC Duration : 1 h 55 min Bit rate : 24.2 Mb/s Width : 3 840 pixels Height : 1 604 pixels Display aspect ratio : 2.40:1 Frame rate mode : Constant Frame rate : 23.976 (24000/1001) FPS Color space : YUV Chroma subsampling : 4:2:0 (Type 2) Bit depth : 10 bits Bits/(Pixel*Frame) : 0.164 Stream size : 19.4 GiB (96%) Default : Yes Forced : No Color range : Limited Color primaries : BT.2020 Transfer characteristics : PQ Matrix coefficients : BT.2020 non-constant Mastering display color primaries : BT.2020 Mastering display luminance : min: 0.0050 cd/m2, max: 1000 cd/m2 Maximum Content Light Level : 649 cd/m2 Maximum Frame-Average Light Level : 181 cd/m2 Audio #1 ID : 2 Format : E-AC-3 Format/Info : Enhanced AC-3 Commercial name : Dolby Digital Plus Codec ID : A_EAC3 Duration : 1 h 55 min Bit rate mode : Constant Bit rate : 384 kb/s Channel(s) : 6 channels Channel layout : L R C LFE Ls Rs Sampling rate : 48.0 kHz Frame rate : 31.250 FPS (1536 SPF) Compression mode : Lossy Stream size : 316 MiB (2%) Title : DUB (Le Doyen) Language : Ukrainian Service kind : Complete Main Default : Yes Forced : No Audio #2 ID : 3 Format : E-AC-3 Format/Info : Enhanced AC-3 Commercial name : Dolby Digital Plus Codec ID : A_EAC3 Duration : 1 h 56 min Bit rate mode : Constant Bit rate : 640 kb/s Channel(s) : 6 channels Channel layout : L R C LFE Ls Rs Sampling rate : 48.0 kHz Frame rate : 31.250 FPS (1536 SPF) Compression mode : Lossy Stream size : 534 MiB (3%) Title : Original Language : English Service kind : Complete Main Default : No Forced : No Text #1 ID : 4 Format : UTF-8 Codec ID : S_TEXT/UTF8 Codec ID/Info : UTF-8 Plain Text Duration : 1 h 53 min Bit rate : 0 b/s Count of elements : 7 Stream size : 464 Bytes (0%) Title : Forced Language : Ukrainian Default : Yes Forced : No Text #2 ID : 5 Format : UTF-8 Codec ID : S_TEXT/UTF8 Codec ID/Info : UTF-8 Plain Text Duration : 1 h 53 min Bit rate : 88 b/s Count of elements : 1328 Stream size : 73.6 KiB (0%) Title : Full Language : Ukrainian Default : No Forced : No Text #3 ID : 6 Format : UTF-8 Codec ID : S_TEXT/UTF8 Codec ID/Info : UTF-8 Plain Text Duration : 1 h 47 min Bit rate : 55 b/s Count of elements : 1523 Stream size : 43.7 KiB (0%) Title : Full Language : English Default : No Forced : No Text #4 ID : 7 Format : UTF-8 Codec ID : S_TEXT/UTF8 Codec ID/Info : UTF-8 Plain Text Duration : 1 h 54 min Bit rate : 66 b/s Count of elements : 2030 Stream size : 55.5 KiB (0%) Title : SDH Language : English Default : No Forced : No
[+] Скриншоты

Всего файлов в раздаче: 1 
Ghostbusters Frozen Empire (2024) WEB-DL 2160p HDR DV P8 Ukr_Eng.mkv20.25 GB

Похожие раздачи по запросу - Охотники
Сегодня magnet Охотники за привидениями: Леденящий ужас / Ghostbusters: Frozen Empire (2023) BDRip 1080p от ExKinoRay | D, P, A 13.27 GB ↑ 0 ↓ 21
Вчера magnet Охотники за привидениями: Леденящий ужас / Ghostbusters: Frozen Empire (2024) BDRip 720p от DoMiNo & селезень | D | Soundmasters, MovieDalen 4.08 GB ↑ 2 ↓ 6
Вчера magnet Охотники за привидениями: Леденящий ужас / Ghostbusters: Frozen Empire (2024) BDRip от DoMiNo & селезень | D | Soundmasters, MovieDalen 1.45 GB ↑ 1 ↓ 2
Вчера magnet Охотники за привидениями: Леденящий ужас / Ghostbusters: Frozen Empire (2024) BDRip 1080p от селезень | D | MovieDalen 8.86 GB ↑ 0 ↓ 6
Вчера magnet Охотники за привидениями: Леденящий ужас / Ghostbusters: Frozen Empire (2024) UHD BDRemux 2160p от селезень | 4K | HDR | Dolby Vision Profile 7 | D 66.82 GB ↑ 0 ↓ 1
2024-06-20 magnet Охотники за привидениями: Леденящий ужас / Ghostbusters: Frozen Empire (2024) BDRip от MegaPeer | D | iTunes 1.46 GB ↑ 0 ↓ 4
2024-06-20 magnet Охотники за привидениями: Леденящий ужас / Ghostbusters: Frozen Empire (2024) BDRip-AVC от New-Team | D 2.18 GB ↑ 57 ↓ 9

Кто качает (только для создателя раздачи и модераторов): Локальные пиры отсутствуют

Комментарии


Зарегистрируйтесь чтобы добавить комментарий
Торрент клиент
byTorrent - программа для загрузки торрент-файлов.

Скачать byTorrent.exe (1,5 МБ)

Скачать byTorrent.zip (0,6 МБ)

Поддержи torrent.by
российских рублей
(300 российских рублей это 4$)

Обратная связь rss

End game ©