↑↓torrent.by
Поиск
Логин:  Регистрация
Пароль:

Музыка крыш (2021) WEB-DLRip-AVC

download Скачать торрент-файл   magnet Магнитная ссылка Размер: 1.48 GB Добавлен: 2024-05-18 17:00
Пиры будут получены из сети DHT
Последний сидер был замечен 2024-06-09 10:58
Музыка крыш Информация о фильме Год релиза: 2021 Выпущено: Россия Жанр: мелодрама, драма Режиссер: Андрей Щербинин В ролях: Илья Коробко, Татьяна Струженкова, Антон Мамин, Ирина Сычева, Анна Кучаева, Фаррух Жумаев, Иван Архипов, Ксения Архипова, Анна Кришталь, Елена Семенова О фильме: Маша настроена спрыгнуть с крыши, она чувствует себя нелюбимой и преданной. Ее последнее желание - послушать любимую песню. В этот день в студии работает циничный радио-диджей Алекс. Короткий звонок на радио превращается в долгую беседу, и, похоже, только Алекс сможет спасти несчастную девушку до того, как песня закончится. Продолжительность: 01:21:42 Субтитры: нет Качество видео: WEB-DLRip-AVC Формат видео: MKV Видео: H264, 1152x480, 2.40:1, 25 fps, 2400 kb/s, 0.174 bit/pixel Аудиодорожка: AC3, 48.0 KHz, 192 Kbps, 2 ch Реклама: Отсутствует
[+] MediaInfo Общее Уникальный идентификатор : 107642351639898694593265544999512416423 (0x50FB29AF46BBCE254EA2A4DD0635A0A7) Полное имя : 192.168.1.2RelisesМузыка крышMusic_of_the_roofs.HDRip-AVC.mkv Формат : Matroska Версия формата : Version 4 Размер файла : 1,48 Гбайт Продолжительность : 1 ч. 21 мин. Общий битрейт : 2 593 Кбит/сек Частота кадров : 25,000 кадров/сек Программа кодирования : Lavf60.16.100 Библиотека кодирования : Lavf60.16.100 ErrorDetectionType : Per level 1 Видео Идентификатор : 1 Формат : AVC Формат/Информация : Advanced Video Codec Профиль формата : High@L3.1 Настройки формата : CABAC / 7 Ref Frames Параметр CABAC формата : Да Параметр RefFrames формата : 7 кадров Идентификатор кодека : V_MPEG4/ISO/AVC Продолжительность : 1 ч. 21 мин. Битрейт : 2 400 Кбит/сек Ширина : 1 152 пикселя Высота : 480 пикселей Соотношение сторон дисплея : 2,40:1 Режим частоты кадров : Постоянный Частота кадров : 25,000 кадров/сек Цветовое пространство : YUV Цветовая субдискретизация : 4:2:0 Битовая глубина : 8 бит Тип развёртки : Прогрессивная Бит/(Пиксели*Кадры) : 0.174 Размер потока : 1,34 Гбайт (91%) Библиотека кодирования : x264 core 164 r3108 31e19f9 Параметры библиотеки кодирования : cabac=1 / ref=7 / deblock=1:0:0 / analyse=0x3:0x113 / me=umh / subme=9 / psy=1 / psy_rd=1.00:0.00 / mixed_ref=1 / me_range=24 / chroma_me=1 / trellis=1 / 8x8dct=1 / cqm=0 / deadzone=21,11 / fast_pskip=1 / chroma_qp_offset=-2 / threads=15 / lookahead_threads=1 / sliced_threads=0 / nr=0 / decimate=1 / interlaced=0 / bluray_compat=0 / constrained_intra=0 / bframes=7 / b_pyramid=2 / b_adapt=1 / b_bias=0 / direct=1 / weightb=1 / open_gop=0 / weightp=2 / keyint=250 / keyint_min=25 / scenecut=40 / intra_refresh=0 / rc_lookahead=40 / rc=2pass / mbtree=1 / bitrate=2400 / ratetol=1.0 / qcomp=0.60 / qpmin=0 / qpmax=69 / qpstep=4 / cplxblur=20.0 / qblur=0.5 / ip_ratio=1.40 / aq=1:1.00 Язык : Русский По умолчанию : Да Принудительно : Нет Цветовой диапазон : Limited Аудио Идентификатор : 2 Формат : AC-3 Формат/Информация : Audio Coding 3 Коммерческое название : Dolby Digital Идентификатор кодека : A_AC3 Продолжительность : 1 ч. 21 мин. Вид битрейта : Постоянный Битрейт : 192 Кбит/сек Канал(-ы) : 2 канала Расположение каналов : L R Частота дискретизации : 48,0 КГц Частота кадров : 31,250 кадров/сек (1536 SPF) Битовая глубина : 32 бита Метод сжатия : С потерями Размер потока : 112 Мбайт (7%) Язык : Русский Вид сервиса : Complete Main По умолчанию : Да Принудительно : Нет Нормализация звука речи : -27 dB compr : -0.28 dB dialnorm_Average : -27 dB dialnorm_Minimum : -27 dB dialnorm_Maximum : -27 dB
[+] Скриншоты

Всего файлов в раздаче: 1 
Music_of_the_roofs.HDRip-AVC.mkv1.48 GB

Похожие раздачи по запросу - Музыка
Сегодня magnet Яндекс Музыка, Книги, Подкасты [v 2024.06.3 #52gpr, Mod] (2024) Android 25.32 MB ↑ 0 ↓ 0
2024-06-13 magnet Яндекс Музыка, Книги, Подкасты [v 2024.06.2 #51gpr, Mod] (2024) Android 25.30 MB ↑ 0 ↓ 0
2024-06-09 magnet Яндекс Музыка, Книги, Подкасты [v 2024.06.1 #50gpr, Mod] (2024) Android 25.42 MB ↑ 0 ↓ 0
2024-06-08 magnet VA - Музыка для разных популярных mp3 сайтов Vol.29 (2024) MP3 354.93 MB ↑ 0 ↓ 0
2024-06-02 magnet Яндекс Музыка, Книги, Подкасты [v 2024.05.4, Mod] (2024) Android 25.14 MB ↑ 0 ↓ 0
2024-05-29 magnet Яндекс Музыка, Книги, Подкасты [v 2024.05.3, Mod] (2024) Android 25.58 MB ↑ 0 ↓ 0
2024-05-26 magnet VA - Музыка для разных популярных mp3 сайтов Vol.27 (2024) MP3 360.13 MB ↑ 0 ↓ 0

Кто качает (только для создателя раздачи и модераторов): Локальные пиры отсутствуют

Комментарии


Зарегистрируйтесь чтобы добавить комментарий
Торрент клиент
byTorrent - программа для загрузки торрент-файлов.

Скачать byTorrent.exe (1,5 МБ)

Скачать byTorrent.zip (0,6 МБ)

Поддержи torrent.by
российских рублей
(300 российских рублей это 4$)

Обратная связь rss

End game ©