↑↓torrent.by
Поиск
Логин:  Регистрация
Пароль:

Беспринципные [04x01-08 из 08] (2024) WEBRip-HEVC 1080p от ExKinoRay

download Скачать торрент-файл   magnet Магнитная ссылка Размер: 15.97 GB Добавлен: 2024-05-18 17:00
Пиры будут получены из сети DHT
Последний сидер был замечен 2024-05-29 17:52
Информация о фильме Название: Беспринципные Год выхода: 2024 Жанр: Комедия, экранизация Режиссер: Роман Прыгунов В ролях: Павел Деревянко, Павел Табаков, Аглая Тарасова, Николай Фоменко, Кристина Бабушкина, Юрий Колокольников, Надежда Михалкова, Марина Доможирова, Александр Балуев, Ирина Пегова, Максим Лагашкин, Милош Бикович, Анна Слю, Матвей Лыков, Ксения Утехина, Дмитрий Муляр, Павел Ворожцов, Карина Зверева, Екатерина Кабак, Алина Дьяченко, Владимир Ляхов, Андрей Жилин, Семён Литвинов, Владислав Резник, Александр Дзюба, Алексей Семёнов, Зоя Зиновьева, Владимир Барташевич, Макс Громов, Михаил Коновалов, Вероника Ряполова, Валентин Бугаев, Виталий Шкунов, Ян Теплов, Владимир Пачин, Юрий Землянухин, Нина Кириллова, Владимир Вострецов, Александра Рудь, Елизавета Агарунова, Зарина Бахтиева, Евгений Петров, Александр Шестопалов, Юлия Марчук, Михаил Демчук, Маша Бриш, Сергей Бондаренко, Татьяна Монахова, Алиса Прокопенко, Анжелика Легостаева, Артемий Корочков, Ольга Челышева, Егор Карамышев, Игорь Басин, Анна Корепина, Юрий Могила, Сергей Шанин О фильме: У Славика в жизни сплошная турбулентность: развод с Людой, новая любовь, но старые слабости. Генерал Хадяков переживает вторую молодость, пока Валя строит карьеру певицы вместе с хитрым продюсером. Паша и Юля продолжают искать лёгкие деньги, а Рома и Вера — воспитывать ребёнка и друг друга в момент, когда в их жизни появляется иностранец Стефан. Тем временем из деревни на Патрики перебираются Алёнка и её родители, которым столичная жизнь тоже оказывается очень по вкусу… Страна: Россия Студия: Кинокомпания «Медиаслово» Продолжительность: 8 х ~ 01:05:00 Язык: Русский Реклама: Отсутствует Файл Формат: MKV Качество: WEBRip 1080p Видео: MPEG-4 AVC, ~ 3349 Кбит/с, 1920x804, 25 кадр/с Аудио 1: E-AC3, 6 ch, 448 Кбит/с (с цензурой) RUS Аудио #02: E-AC3, 6 ch, 448 Кбит/с | Тифлокомментирование Субтитры: Русские (полные, SDH)
[+] МИ General Unique ID : 178050103580025362257084123866826882326 (0x85F333DE284767A8E3EAA9E401FD3D16) Complete name : G:Besprincipnye.S04.2024.WEB-DL.1080p.ExKinoRayBesprincipnye.S04.E01.2024.WEB-DL.1080p.ExKinoRay.mkv Format : Matroska Format version : Version 4 File size : 1.51 GiB Duration : 1 h 4 min Overall bit rate : 3 349 kb/s Encoded date : UTC 2024-03-29 11:35:21 Writing application : mkvmerge v56.1.0 ('My Friend') 64-bit Writing library : libebml v1.4.2 + libmatroska v1.6.4 Video ID : 1 Format : HEVC Format/Info : High Efficiency Video Coding Format profile : Main@L4@High Codec ID : V_MPEGH/ISO/HEVC Duration : 1 h 4 min Bit rate : 2 451 kb/s Width : 1 920 pixels Height : 804 pixels Display aspect ratio : 2.40:1 Frame rate mode : Constant Frame rate : 25.000 FPS Color space : YUV Chroma subsampling : 4:2:0 Bit depth : 8 bits Bits/(Pixel*Frame) : 0.064 Stream size : 1.10 GiB (73%) Writing library : x265 3.5: 8bit+10bit Encoding settings : cpuid=1111039 / frame-threads=5 / wpp / no-pmode / no-pme / no-psnr / no-ssim / log-level=2 / input-csp=1 / input-res=1920x804 / interlace=0 / total-frames=0 / level-idc=40 / high-tier=1 / uhd-bd=0 / ref=2 / no-allow-non-conformance / no-repeat-headers / annexb / no-aud / no-hrd / info / hash=0 / no-temporal-layers / open-gop / min-keyint=1 / keyint=100 / gop-lookahead=0 / bframes=4 / b-adapt=2 / b-pyramid / bframe-bias=0 / rc-lookahead=100 / lookahead-slices=4 / scenecut=40 / hist-scenecut=0 / radl=0 / no-splice / no-intra-refresh / ctu=64 / min-cu-size=8 / rect / no-amp / max-tu-size=32 / tu-inter-depth=1 / tu-intra-depth=1 / limit-tu=0 / rdoq-level=2 / dynamic-rd=0.00 / no-ssim-rd / signhide / no-tskip / nr-intra=0 / nr-inter=0 / no-constrained-intra / strong-intra-smoothing / max-merge=3 / limit-refs=3 / limit-modes / me=3 / subme=3 / merange=57 / temporal-mvp / no-frame-dup / no-hme / weightp / no-weightb / no-analyze-src-pics / deblock=0:0 / sao / no-sao-non-deblock / rd=4 / selective-sao=4 / no-early-skip / rskip / no-fast-intra / no-tskip-fast / no-cu-lossless / no-b-intra / no-splitrd-skip / rdpenalty=0 / psy-rd=2.00 / psy-rdoq=1.00 / no-rd-refine / no-lossless / cbqpoffs=0 / crqpoffs=0 / rc=crf / crf=16.0 / qcomp=0.60 / qpstep=4 / stats-write=0 / stats-read=0 / vbv-maxrate=30000 / vbv-bufsize=30000 / vbv-init=0.9 / min-vbv-fullness=50.0 / max-vbv-fullness=80.0 / crf-max=0.0 / crf-min=0.0 / ipratio=1.40 / pbratio=1.30 / aq-mode=2 / aq-strength=1.00 / cutree / zone-count=0 / no-strict-cbr / qg-size=32 / no-rc-grain / qpmax=69 / qpmin=0 / no-const-vbv / sar=1 / overscan=0 / videoformat=5 / range=0 / colorprim=1 / transfer=1 / colormatrix=1 / chromaloc=0 / display-window=0 / cll=0,0 / min-luma=0 / max-luma=255 / log2-max-poc-lsb=8 / vui-timing-info / vui-hrd-info / slices=1 / no-opt-qp-pps / no-opt-ref-list-length-pps / no-multi-pass-opt-rps / scenecut-bias=0.05 / hist-threshold=0.03 / no-opt-cu-delta-qp / no-aq-motion / no-hdr10 / no-hdr10-opt / no-dhdr10-opt / no-idr-recovery-sei / analysis-reuse-level=0 / analysis-save-reuse-level=0 / analysis-load-reuse-level=0 / scale-factor=0 / refine-intra=0 / refine-inter=0 / refine-mv=1 / refine-ctu-distortion=0 / no-limit-sao / ctu-info=0 / no-lowpass-dct / refine-analysis-type=0 / copy-pic=1 / max-ausize-factor=1.0 / no-dynamic-refine / no-single-sei / no-hevc-aq / no-svt / no-field / qp-adaptation-range=1.00 / scenecut-aware-qp=0conformance-window-offsets / right=0 / bottom=0 / decoder-max-rate=0 / no-vbv-live-multi-pass Language : Russian Default : Yes Forced : No Color range : Limited Color primaries : BT.709 Transfer characteristics : BT.709 Matrix coefficients : BT.709 Audio #1 ID : 2 Format : E-AC-3 Format/Info : Enhanced AC-3 Commercial name : Dolby Digital Plus Codec ID : A_EAC3 Duration : 1 h 4 min Bit rate mode : Constant Bit rate : 448 kb/s Channel(s) : 6 channels Channel layout : L R C LFE Ls Rs Sampling rate : 48.0 kHz Frame rate : 31.250 FPS (1536 SPF) Bit depth : 32 bits Compression mode : Lossy Stream size : 207 MiB (13%) Language : Russian Service kind : Complete Main Default : Yes Forced : No Audio #2 ID : 3 Format : E-AC-3 Format/Info : Enhanced AC-3 Commercial name : Dolby Digital Plus Codec ID : A_EAC3 Duration : 1 h 4 min Bit rate mode : Constant Bit rate : 448 kb/s Channel(s) : 6 channels Channel layout : L R C LFE Ls Rs Sampling rate : 48.0 kHz Frame rate : 31.250 FPS (1536 SPF) Bit depth : 32 bits Compression mode : Lossy Stream size : 207 MiB (13%) Title : Audio Deion Language : Russian Service kind : Complete Main Default : No Forced : No Text #1 ID : 4 Format : UTF-8 Codec ID : S_TEXT/UTF8 Codec ID/Info : UTF-8 Plain Text Duration : 1 h 1 min Bit rate : 109 b/s Frame rate : 0.254 FPS Count of elements : 933 Stream size : 49.3 KiB (0%) Language : Russian Default : No Forced : No Text #2 ID : 5 Format : UTF-8 Codec ID : S_TEXT/UTF8 Codec ID/Info : UTF-8 Plain Text Duration : 1 h 1 min Bit rate : 125 b/s Frame rate : 0.284 FPS Count of elements : 1051 Stream size : 56.5 KiB (0%) Title : SDH Language : Russian Default : No Forced : No
[+] Скриншоты
Релиз от:

Всего файлов в раздаче: 8 
Besprincipnye.S04.E01.2024.WEB-DL.1080p.ExKinoRay.mkv1.51 GB
Besprincipnye.S04.E02.2024.WEB-DL.1080p.ExKinoRay.mkv2.23 GB
Besprincipnye.S04.E03.2024.WEB-DL.1080p.ExKinoRay.mkv1.67 GB
Besprincipnye.S04.E04.2024.WEB-DL.1080p.ExKinoRay.mkv2.33 GB
Besprincipnye.S04.E05.2024.WEB-DL.1080p.ExKinoRay.mkv2.28 GB
Besprincipnye.S04.E06.2024.WEB-DL.1080p.ExKinoRay.mkv1.73 GB
Besprincipnye.S04.E07.2024.WEB-DL.1080p.ExKinoRay.mkv1.97 GB
Besprincipnye.S04.E08.2024.WEB-DL.1080p.ExKinoRay.mkv2.24 GB

Похожие раздачи по запросу - Беспринципные
2024-05-28 magnet Беспринципные [S04] (2024) WEB-DL 720p 8.53 GB ↑ 0 ↓ 0
2024-05-23 magnet Беспринципные [S04] (2024) WEB-DLRip-AVC от Generalfilm | КПК 1.92 GB ↑ 0 ↓ 0
2024-05-20 magnet Беспринципные [S04] (2024) WEB-DLRip-AVC от Files-x 6.93 GB ↑ 0 ↓ 0
2024-05-20 magnet Беспринципные [S04] (2024) WEB-DLRip от Files-x 5.77 GB ↑ 0 ↓ 0
2024-05-20 magnet Беспринципные [S01-04] (2020-2024) WEB-DL 1080p от ExKinoRay 63.62 GB ↑ 0 ↓ 0
2024-05-19 magnet Беспринципные [S04] (2024) WEB-DLRip от Files-x 5.68 GB ↑ 0 ↓ 0
2024-05-18 magnet Беспринципные [S04] (2024) WEBRip-HEVC 2160p | 4K | SDR 33.52 GB ↑ 1 ↓ 0

Комментарии


Зарегистрируйтесь чтобы добавить комментарий
Торрент клиент
byTorrent - программа для загрузки торрент-файлов.

Скачать byTorrent.exe (1,5 МБ)

Скачать byTorrent.zip (0,6 МБ)

Поддержи torrent.by
российских рублей
(300 российских рублей это 4$)

Обратная связь rss

End game ©