↑↓torrent.by
Поиск
Логин:  Регистрация
Пароль:

Годзилла и Конг: Новая империя / Godzilla x Kong: The New Empire (2024) UHD WEB-DL-HEVC 2160p | 4K | Dolby Vision TV | D, P

download Скачать торрент-файл   magnet Магнитная ссылка Размер: 21.05 GB Добавлен: 2024-05-19 05:00
Пиры будут получены из сети DHT
Последний сидер был замечен 2024-06-04 19:15
Название: Годзилла и Конг: Новая империя Оригинальное название: Godzilla x Kong: The New Empire Год выхода: 2024 Производство: США, Австралия / Warner Bros., Legendary Pictures, Screen Queensland Жанр: Фантастика, боевик Перевод: Профессиональный дублированный, профессиональный многоголосый Продолжительность: 01:55:32 Режиссёр: Адам Вингард В ролях: Ребекка Холл, Брайан Тайри Генри, Дэн Стивенс, Кэйли Хоттл, Алекс Фернс, Чэнь Фала, Рэйчел Хаус, Рональд Смик, Чантелл Джемисон, Грег Хаттон Описание: Два древних титана, Годзилла и Конг, сражаются в эпической битве, пока люди разгадывают их происхождение и связь с тайнами Острова черепа. Формат: MPEG-4 Качество: WEB-DL 2160p Видео: MPEG-H HEVC / ~24,5 Мбит/с / 3840x1606 / 0.165 бит/(Пиксели*Кадры) / 23,976fps Аудио 01: Е-AC3, 6 ch, 384 kbps | Русский, Dub | Bravo Records Georgia / Movie Dubbing | Аудио 02: АС-3, 6 ch, 384 kbps | Русский, MVO | Jaskier | Аудио 03: Е-AC3, 6 ch, 256 kbps | Украинский, Dub | Postmodern | Аудио 04: Е-AC3, 6 ch, 768 kbps | Original | Субтитры: Русские (Forced, Full), английские (Full, Forced, SDH) и другие
[+] MediainfoGeneral Complete name : C:Godzilla.x.Kong.The.New.Empire.2024.2160p.UHD.WEB-DL.DV.HEVC-Нечипорук.mp4 Format : MPEG-4 Format profile : Base Media Codec ID : isom (isom/dby1/iso2/mp41) File size : 21.1 GiB Duration : 1 h 55 min Overall bit rate mode : Variable Overall bit rate : 26.2 Mb/s Frame rate : 23.976 FPS Movie name : Godzilla.x.Kong.The.New.Empire.2024.2160p.UHD.WEB-DL.DV.HEVC-Нечипорук Tagged date : 2024-05-16 12:43:29 UTC Writing application : Lavf60.3.100 Cover : Yes Video ID : 1 Format : HEVC Format/Info : High Efficiency Video Coding Format profile : Main 10@L5@High HDR format : Dolby Vision, Version 1.0, Profile 5, dvhe.05.06, BL+RPU Codec ID : dvhe Codec ID/Info : High Efficiency Video Coding with Dolby Vision Duration : 1 h 54 min Bit rate : 24.5 Mb/s Width : 3 840 pixels Height : 1 606 pixels Display aspect ratio : 2.39:1 Frame rate mode : Constant Frame rate : 23.976 (24000/1001) FPS Color space : YUV Chroma subsampling : 4:2:0 Bit depth : 10 bits Bits/(Pixel*Frame) : 0.165 Stream size : 19.6 GiB (93%) Title : Godzilla.x.Kong.The.New.Empire.2024.2160p.UHD.WEB-DL.DV.HEVC-Нечипорук Language : English Tagged date : 2024-05-16 12:43:29 UTC Codec configuration box : hvcC+dvcC Audio #1 ID : 3 Format : E-AC-3 Format/Info : Enhanced AC-3 Commercial name : Dolby Digital Plus Codec ID : ec-3 Duration : 1 h 54 min Bit rate mode : Constant Bit rate : 384 kb/s Channel(s) : 6 channels Channel layout : L R C LFE Ls Rs Sampling rate : 48.0 kHz Frame rate : 31.250 FPS (1536 SPF) Compression mode : Lossy Stream size : 315 MiB (1%) Title : Дубляж Bravo Records Georgia / Movie Dubbing Language : Russian Service kind : Complete Main Default : Yes Alternate group : 1 Tagged date : 2024-05-16 12:43:29 UTC Audio #2 ID : 4 Format : AC-3 Format/Info : Audio Coding 3 Commercial name : Dolby Digital Codec ID : ac-3 Duration : 1 h 54 min Bit rate mode : Constant Bit rate : 384 kb/s Channel(s) : 6 channels Channel layout : L R C LFE Ls Rs Sampling rate : 48.0 kHz Frame rate : 31.250 FPS (1536 SPF) Compression mode : Lossy Stream size : 315 MiB (1%) Title : MVO Jaskier Language : Russian Service kind : Complete Main Default : No Alternate group : 1 Tagged date : 2024-05-16 12:43:29 UTC Audio #3 ID : 5 Format : E-AC-3 Format/Info : Enhanced AC-3 Commercial name : Dolby Digital Plus Codec ID : ec-3 Duration : 1 h 55 min Bit rate mode : Constant Bit rate : 256 kb/s Channel(s) : 6 channels Channel layout : L R C LFE Ls Rs Sampling rate : 48.0 kHz Frame rate : 31.250 FPS (1536 SPF) Compression mode : Lossy Stream size : 211 MiB (1%) Title : Дубляж Postmodern Language : Ukrainian Service kind : Complete Main Default : No Alternate group : 1 Tagged date : 2024-05-16 12:43:29 UTC Audio #4 ID : 6 Format : E-AC-3 JOC Format/Info : Enhanced AC-3 with Joint Object Coding Commercial name : Dolby Digital Plus with Dolby Atmos Codec ID : ec-3 Duration : 1 h 54 min Bit rate mode : Constant Bit rate : 768 kb/s Channel(s) : 6 channels Channel layout : L R C LFE Ls Rs Sampling rate : 48.0 kHz Frame rate : 31.250 FPS (1536 SPF) Compression mode : Lossy Stream size : 630 MiB (3%) Title : Original Language : English Service kind : Complete Main Default : No Alternate group : 1 Tagged date : 2024-05-16 12:43:29 UTC Complexity index : Not present / 16 Number of dynamic objects : 15 Bed channel count : 1 channel Bed channel configuration : LFE Text #1 ID : 7 Format : Timed Text Muxing mode : sbtl Codec ID : tx3g Duration : 1 h 44 min Bit rate mode : Variable Bit rate : 4 b/s Frame rate : 0.021 FPS Stream size : 3.11 KiB (0%) Title : Форсированные Language : Russian Default : Yes Forced : No Alternate group : 3 Count of events : 67 Text #2 ID : 8 Format : Timed Text Muxing mode : sbtl Codec ID : tx3g Duration : 1 h 54 min Bit rate mode : Variable Bit rate : 54 b/s Frame rate : 0.240 FPS Stream size : 45.7 KiB (0%) Title : Полные Language : Russian Default : No Forced : No Alternate group : 3 Count of events : 825 Text #3 ID : 9 Format : Timed Text Muxing mode : sbtl Codec ID : tx3g Duration : 1 h 44 min Bit rate mode : Variable Bit rate : 6 b/s Frame rate : 0.028 FPS Stream size : 4.67 KiB (0%) Title : Форсованнi Language : Ukrainian Default : No Forced : No Alternate group : 3 Count of events : 89 Text #4 ID : 10 Format : Timed Text Muxing mode : sbtl Codec ID : tx3g Duration : 1 h 44 min Bit rate mode : Variable Bit rate : 2 b/s Frame rate : 0.017 FPS Stream size : 1.48 KiB (0%) Title : Forced Language : English Default : No Forced : No Alternate group : 3 Count of events : 56 Text #5 ID : 11 Format : Timed Text Muxing mode : sbtl Codec ID : tx3g Duration : 1 h 46 min Bit rate mode : Variable Bit rate : 44 b/s Frame rate : 0.188 FPS Stream size : 34.0 KiB (0%) Title : Full Language : English Default : No Forced : No Alternate group : 3 Count of events : 952 Text #6 ID : 12 Format : Timed Text Muxing mode : sbtl Codec ID : tx3g Duration : 1 h 54 min Bit rate mode : Variable Bit rate : 60 b/s Frame rate : 0.343 FPS Stream size : 50.2 KiB (0%) Title : Full SDH Language : English Service kind : Hearing Impaired Default : No Forced : No Alternate group : 3 Count of events : 1654 Text #7 ID : 13 Format : Timed Text Muxing mode : sbtl Codec ID : tx3g Duration : 1 h 54 min Bit rate mode : Variable Bit rate : 52 b/s Frame rate : 0.227 FPS Stream size : 43.7 KiB (0%) Title : Пълни субтитри Language : Bulgarian Default : No Forced : No Alternate group : 3 Count of events : 779 Text #8 ID : 14 Format : Timed Text Muxing mode : sbtl Codec ID : tx3g Duration : 1 h 45 min Bit rate mode : Variable Bit rate : 37 b/s Frame rate : 0.260 FPS Stream size : 28.4 KiB (0%) Title : Täielikud subtiitrid Language : Estonian Default : No Forced : No Alternate group : 3 Count of events : 823 Text #9 ID : 15 Format : Timed Text Muxing mode : sbtl Codec ID : tx3g Duration : 1 h 45 min Bit rate mode : Variable Bit rate : 37 b/s Frame rate : 0.261 FPS Stream size : 28.8 KiB (0%) Title : Pilni subtitri Language : Latvian Default : No Forced : No Alternate group : 3 Count of events : 826 Text #10 ID : 16 Format : Timed Text Muxing mode : sbtl Codec ID : tx3g Duration : 1 h 54 min Bit rate mode : Variable Bit rate : 31 b/s Frame rate : 0.220 FPS Stream size : 25.8 KiB (0%) Title : Pełne napisy Language : Polish Default : No Forced : No Alternate group : 3 Count of events : 756
[+] Скриншоты

Всего файлов в раздаче: 1 
Godzilla.x.Kong.The.New.Empire.2024.2160p.UHD.WEB-DL.DV.HEVC-Нечипорук.mp421.05 GB

Похожие раздачи по запросу - Годзилла
2024-06-17 magnet Годзилла и Конг: Новая империя / Ґодзілла та Конґ: Нова імперія / Godzilla x Kong: The New Empire (2024) BDRip 1080p | D | UKR 16.33 GB ↑ 0 ↓ 0
2024-06-17 magnet Годзилла и Конг: Новая империя / Godzilla x Kong: The New Empire (2024) BDRip 1080p от Generalfilm | D 11.45 GB ↑ 0 ↓ 1
2024-06-13 magnet Годзилла: Минус один / Gojira -1.0 / Godzilla: Minus One (2023) BDRip-AVC от DoMiNo & селезень | D | Red Head Sound 746.14 MB ↑ 0 ↓ 0
2024-06-13 magnet Годзилла: Минус один / Gojira -1.0 / Godzilla: Minus One (2023) BDRip от MegaPeer | D | Red Head Sound 2.18 GB ↑ 0 ↓ 0
2024-06-13 magnet Годзилла: Минус один / Gojira -1.0 / Godzilla: Minus One (2023) BDRip 1080p от Scarabey | D | Red Head Sound 9.73 GB ↑ 0 ↓ 1
2024-06-13 magnet Годзилла: Минус один / Gojira -1.0 / Godzilla: Minus One (2023) BDRip-AVC от DoMiNo & селезень | D | Red Head Sound 1.79 GB ↑ 0 ↓ 0
2024-06-13 magnet Годзилла: Минус один / Gojira -1.0 / Godzilla: Minus One (2023) BDRip 720p от DoMiNo & селезень | D | Red Head Sound 4.46 GB ↑ 0 ↓ 0

Комментарии


Зарегистрируйтесь чтобы добавить комментарий
Торрент клиент
byTorrent - программа для загрузки торрент-файлов.

Скачать byTorrent.exe (1,5 МБ)

Скачать byTorrent.zip (0,6 МБ)

Поддержи torrent.by
российских рублей
(300 российских рублей это 4$)

Обратная связь rss

End game ©