↑↓torrent.by
Поиск
Логин:  Регистрация
Пароль:

Мосгаз Дело №9 Последнее дело Черкасова [S09] (2023) WEBRip от New-Team

download Скачать торрент-файл   magnet Магнитная ссылка Размер: 3.65 GB Добавлен: 2024-05-19 05:00
Пиры будут получены из сети DHT
Последний сидер был замечен 2024-06-22 22:39
Страна: Россия Производство: Студия Русский Проект Жанр: детектив, криминал, триллер Год выпуска: 2018 Продолжительность: 8 серий ~ по 50 мин. Перевод: не требуется Оригинальная аудиодорожка: русский Cубтитры: нет Режиссер: Евгений Звездаков В ролях: Андрей Смоляков, Максим Матвеев, Марина Александрова, Андрей Мерзликин, Ольга Лерман, Алексей Гуськов, Вадим Андреев, Алексей Бардуков, Александр Голубев, Сергей Угрюмов, Леонид Ярмольник, Антон Кузнецов, Владимир Юматов, Луиза Мосендз, Юрий Тарасов, Даниэла Стоянович, Александр Дробитько, Анастасия Обжигина, Алёна Малахова, Эра Зиганшина, Анна Каменкова, Никита Тарасов, Зураб Миминошвили, Вадим Громыко, Наталья Гребёнкина, Игорь Юртаев, Владимир Матвеев, Михаил Хомяков, Виктор Конухин, Сергей Цигаль... Полный список актёров Описание: 1981 год. Иван Петрович Черкасов расследует запутанное дело. И, как всегда, им недовольно начальство. Черкасова не просто отчитывают на летучках и собраниях, ему угрожают отходом от дел. Ивану Петровичу довольно сложно представить себя на пенсии. Но он понимает, что стал быстро уставать, пропускать важную информацию. В общем - стареть. Да тут еще появляется молодой следователь, который умеет работать на появившихся компьютерах, притаскивает в отдел детектор лжи… Иван Петрович решает уступить. Но в последнем деле должен сам поставить точку. И преданные сослуживцы знают, что новый сотрудник не заменит опытного следака. Но начальство сердится всерьез - Черкасова отстраняют от ведения. Однако, выходит так, что именно Иван Черкасов становится потенциальной жертвой разыскиваемого им убийцы. Черкасов понимает, в какую опасную ситуацию попадают его жена и дети. Он должен защитить их, он не может не довести это последнее свое дело до самого конца. Исходник: WEBRip 1080p Качество видео: WEBRip Формат видео: AVI Видео: 720x400 (16:9), 25,000 кадра/сек, XviD 73 ~ 1 087 кбит/сек, 0.151 бит/пиксель Аудио: 48 кГц, Dolby Digital AC3 2.0, 192 кбит/сек Раздача от:
[+] MediaInfo Общее Полное имя : Последнее дело Черкасова.2023.WEBRip__by_AVP_StudioСерия 01.avi Формат : AVI Формат/Информация : Audio Video Interleave Настройки формата : BitmapInfoHeader / WaveFormatEx Размер файла : 464 Мбайт Продолжительность : 50 мин. 17 с. Общий битрейт : 1 289 Кбит/сек Частота кадров : 25,000 кадров/сек Программа кодирования : VirtualDubMod 1.5.10.3 | www.virtualdub-fr.org || (build 2550/release) Библиотека кодирования : VirtualDubMod build 2550/release Видео Идентификатор : 0 Формат : MPEG-4 Visual Профиль формата : Advanced Simple@L5 Настройки формата : BVOP1 / Custom Matrix Параметр BVOP формата : 1 Параметр QPel формата : Нет Параметр GMC формата : Без точки перехода Параметр Matrix формата : Выборочная Идентификатор кодека : XVID Идентификатор кодека/Подсказка : XviD Продолжительность : 50 мин. 17 с. Битрейт : 1 087 Кбит/сек Ширина : 720 пикселей Высота : 400 пикселей Соотношение сторон дисплея : 16:9 Частота кадров : 25,000 кадров/сек Цветовое пространство : YUV Цветовая субдискретизация : 4:2:0 Битовая глубина : 8 бит Тип развёртки : Прогрессивная Метод сжатия : С потерями Бит/(Пиксели*Кадры) : 0.151 Размер потока : 391 Мбайт (84%) Библиотека кодирования : XviD 73 Аудио Идентификатор : 1 Формат : AC-3 Формат/Информация : Audio Coding 3 Коммерческое название : Dolby Digital Идентификатор кодека : 2000 Продолжительность : 50 мин. 17 с. Вид битрейта : Постоянный Битрейт : 192 Кбит/сек Канал(-ы) : 2 канала Расположение каналов : L R Частота дискретизации : 48,0 КГц Частота кадров : 31,250 кадров/сек (1536 SPF) Метод сжатия : С потерями Размер потока : 69,1 Мбайт (15%) Выравнивание : Разделение по промежуткам Чередование, продолжительность : 40 мс. (1,00 видеокадр) Чередование, продолжительность пред.загр : 500 мс
[+] Скриншоты

Всего файлов в раздаче: 8 
Серия 01.avi463.77 MB
Серия 02.avi465.64 MB
Серия 03.avi477.49 MB
Серия 04.avi464.82 MB
Серия 05.avi462.29 MB
Серия 06.avi473.84 MB
Серия 07.avi455.25 MB
Серия 08.avi478.50 MB

Похожие раздачи по запросу - Мосгаз
2024-05-23 magnet Мосгаз [S01-10 из 10] (2012-2024) WEB-DLRip, WEBRip от Generalfilm | КПК 15.66 GB ↑ 0 ↓ 0
2024-05-21 magnet Мосгаз Дело №10 Метроном [S10] (2024) WEBRip от New-Team 3.65 GB ↑ 0 ↓ 0
2024-05-21 magnet Мосгаз Дело №10 Метроном [S10] (2024) WEBRip-AVC от New-Team 6.54 GB ↑ 0 ↓ 0
2024-05-16 magnet Мосгаз. Дело №10: Метроном [S10] (2024) WEBRip от Files-x 5.00 GB ↑ 0 ↓ 0
2024-05-15 magnet Мосгаз. Дело №10: Метроном [S10] (2024) WEBRip 720p от ExKinoRay 9.64 GB ↑ 0 ↓ 0
2024-05-15 magnet Мосгаз. Дело №10: Метроном [S10] (2024) WEBRip-AVC от Files-x 5.03 GB ↑ 1 ↓ 0
2024-05-14 magnet Мосгаз. Дело №10: Метроном [S10] (2024) WEBRip 1080p от ExKinoRay 15.39 GB ↑ 0 ↓ 0

Кто качает (только для создателя раздачи и модераторов): Локальные пиры отсутствуют

Комментарии


Зарегистрируйтесь чтобы добавить комментарий
Торрент клиент
byTorrent - программа для загрузки торрент-файлов.

Скачать byTorrent.exe (1,5 МБ)

Скачать byTorrent.zip (0,6 МБ)

Поддержи torrent.by
российских рублей
(300 российских рублей это 4$)

Обратная связь rss

End game ©