↑↓torrent.by
Поиск
Логин:  Регистрация
Пароль:

Нет / Nope (2022) HDRip-AVC от DoMiNo & селезень | D | IMAX | Лицензия

download Скачать торрент-файл   magnet Магнитная ссылка Размер: 2.30 GB Добавлен: 2024-05-19 05:00
Пиры будут получены из сети DHT
Последний сидер был замечен 2024-05-24 01:00
Информация о фильме Название: Нет Оригинальное название: Nope Год выхода: 2022 Жанр: Ужасы, фантастика, триллер, детектив Режиссер: Джордан Пил В ролях: Дэниэл Калуя, Кеке Палмер, Стивен Ян, Брэндон Переа, Майкл Уинкотт, Ренн Шмидт, Кит Дэвид, Девон Грайе, Терри Нотари, Барби Феррейра О фильме: Жители лошадиной фермы в Калифорнии сталкиваются с чем-то поистине жутким и невообразимым. «Нет» — новый авторский хоррор от создателя «Прочь» Джордана Пила.. Страна: США, Япония Студия: Dentsu, Monkeypaw Prodctions, Universal Pictures Продолжительность: 02:10:29 Перевод: Дублированный | Лицензия Субтитры: Русские (Forced, 2 x full), английские Файл Формат: Matroska Качество: HDRip-AVC Видео: 1024x576 at 23.976 fps, x264@L4.1, ~1685 kbps Аудио 1: AC3, 6 ch, ~384 kbps - | Русский | Аудио 2: AC3, 6 ch, ~448 kbps - | Английский | Формат субтитров: softsub (SRT) ***Рип от: -=DoMiNo=-
[+] M/Ix264 : frame I:1319 Avg QP:12.61 size: 69694 x264 : frame P:38482 Avg QP:14.41 size: 20802 x264 : frame B:147951 Avg QP:16.86 size: 5115 General Unique ID : 64169018797114290391454242614061153303 (0x304680E41643BEEE53F7C94D89F1BC17) Complete name : D:DLTNope.2022.IMAX.DUB.HDRip.x264.seleZen.mkv Format : Matroska Format version : Version 4 File size : 2.30 GiB Duration : 2 h 10 min Overall bit rate : 2 519 kb/s Movie name : Nope.2022.IMAX.DUB.HDRip.x264.seleZen Encoded date : UTC 2022-12-16 09:20:47 Writing application : mkvmerge v72.0.0 ('Minuano (Six-eight)') 64-bit Writing library : libebml v1.4.4 + libmatroska v1.7.1 Cover : Yes Attachments : cover.jpg / small_cover.jpg Video ID : 1 Format : AVC Format/Info : Advanced Video Codec Format profile : High@L4.1 Format settings : CABAC / 14 Ref Frames Format settings, CABAC : Yes Format settings, Reference : 14 frames Codec ID : V_MPEG4/ISO/AVC Duration : 2 h 10 min Bit rate : 1 685 kb/s Width : 1 024 pixels Height : 576 pixels Display aspect ratio : 16:9 Frame rate mode : Constant Frame rate : 23.976 (24000/1001) FPS Color space : YUV Chroma subsampling : 4:2:0 Bit depth : 8 bits Scan type : Progressive Bits/(Pixel*Frame) : 0.119 Stream size : 1.54 GiB (67%) Title : -=DoMiNo=- Writing library : x264 core 164 r3099+55M 141af3f t_mod_New | by -=DoMiNo=- | X86_64 Encoding settings : cabac=1 / ref=14 / deblock=1:-3:-2 / analyse=0x3:0x133 / me=umh / subme=10 / psy=1 / fade_compensate=0.00 / psy_rd=1.03:0.03 / mixed_ref=1 / me_range=32 / chroma_me=1 / trellis=2 / 8x8dct=1 / cqm=0 / deadzone=21,11 / fast_pskip=1 / chroma_qp_offset=-3 / threads=18 / lookahead_threads=3 / sliced_threads=0 / nr=0 / decimate=1 / interlaced=0 / bluray_compat=0 / constrained_intra=0 / fgo=0 / bframes=9 / b_pyramid=2 / b_adapt=2 / b_bias=0 / direct=1 / weightb=1 / open_gop=0 / weightp=2 / keyint=250 / keyint_min=23 / scenecut=40 / intra_refresh=0 / rc_lookahead=60 / rc=crf / mbtree=0 / crf=17.5000 / qcomp=0.65 / qpmin=0:0:0 / qpmax=69:69:69 / qpstep=4 / vbv_maxrate=50000 / vbv_bufsize=62500 / crf_max=0.0 / nal_hrd=none / filler=0 / ip_ratio=1.40 / pb_ratio=1.30 / aq=3:0.80 / aq-sensitivity=10.00 / aq-factor=1.00:1.00:1.00 / aq2=0 / aq3=0 Language : English Default : Yes Forced : No Color range : Limited Color primaries : BT.709 Matrix coefficients : BT.709 Audio #1 ID : 2 Format : AC-3 Format/Info : Audio Coding 3 Commercial name : Dolby Digital Codec ID : A_AC3 Duration : 2 h 10 min Bit rate mode : Constant Bit rate : 384 kb/s Channel(s) : 6 channels Channel layout : L R C LFE Ls Rs Sampling rate : 48.0 kHz Frame rate : 31.250 FPS (1536 SPF) Compression mode : Lossy Stream size : 358 MiB (15%) Title : Dub Language : Russian Service kind : Complete Main Default : Yes Forced : Yes Audio #2 ID : 3 Format : AC-3 Format/Info : Audio Coding 3 Commercial name : Dolby Digital Codec ID : A_AC3 Duration : 2 h 10 min Bit rate mode : Constant Bit rate : 448 kb/s Channel(s) : 6 channels Channel layout : L R C LFE Ls Rs Sampling rate : 48.0 kHz Frame rate : 31.250 FPS (1536 SPF) Compression mode : Lossy Stream size : 418 MiB (18%) Title : Original Language : English Service kind : Complete Main Default : No Forced : No Text #1 ID : 4 Format : UTF-8 Codec ID : S_TEXT/UTF8 Codec ID/Info : UTF-8 Plain Text Duration : 2 h 2 min Bit rate : 0 b/s Count of elements : 19 Stream size : 575 Bytes (0%) Title : Forced Language : Russian Default : Yes Forced : Yes Text #2 ID : 5 Format : UTF-8 Codec ID : S_TEXT/UTF8 Codec ID/Info : UTF-8 Plain Text Duration : 2 h 10 min Bit rate : 60 b/s Count of elements : 1405 Stream size : 57.5 KiB (0%) Title : Full Language : Russian Default : No Forced : No Text #3 ID : 6 Format : UTF-8 Codec ID : S_TEXT/UTF8 Codec ID/Info : UTF-8 Plain Text Duration : 2 h 3 min Bit rate : 73 b/s Count of elements : 1526 Stream size : 66.6 KiB (0%) Title : Full Language : Russian Default : No Forced : No Text #4 ID : 7 Format : UTF-8 Codec ID : S_TEXT/UTF8 Codec ID/Info : UTF-8 Plain Text Duration : 2 h 9 min Bit rate : 46 b/s Count of elements : 1662 Stream size : 43.8 KiB (0%) Title : Full Language : English Default : No Forced : No Text #5 ID : 8 Format : UTF-8 Codec ID : S_TEXT/UTF8 Codec ID/Info : UTF-8 Plain Text Duration : 2 h 10 min Bit rate : 61 b/s Count of elements : 2188 Stream size : 58.8 KiB (0%) Title : SDH Language : English Default : No Forced : No Menu 00:00:00.000 : en:Chapter 01 00:08:10.490 : en:Chapter 02 00:14:54.393 : en:Chapter 03 00:21:47.473 : en:Chapter 04 00:25:31.739 : en:Chapter 05 00:30:58.523 : en:Chapter 06 00:40:00.023 : en:Chapter 07 00:43:54.340 : en:Chapter 08 00:51:44.226 : en:Chapter 09 00:57:35.744 : en:Chapter 10 01:04:23.902 : en:Chapter 11 01:11:43.716 : en:Chapter 12 01:22:42.166 : en:Chapter 13 01:29:20.772 : en:Chapter 14 01:35:22.133 : en:Chapter 15 01:39:26.961 : en:Chapter 16 01:47:48.337 : en:Chapter 17 01:52:32.037 : en:Chapter 18 01:57:17.572 : en:Chapter 19 02:03:44.000 : en:Chapter 20
Релиз: Присоединяйся к: Кликай на баннеры.

Всего файлов в раздаче: 1 
Nope.2022.IMAX.DUB.HDRip.x264.seleZen.mkv2.30 GB

Похожие раздачи по запросу - Нет
2024-06-03 magnet Бова Ильжиева - Английский для тех, у кого нет времени на английский (2020) PDF 11.89 MB ↑ 0 ↓ 0
2024-05-19 magnet Нет / Nope (2022) BDRip 1080p от EniaHD | D, P | IMAX 15.15 GB ↑ 0 ↓ 0
2024-05-18 magnet Ричард Руссо - Дураков нет (2024) MP3 1.51 GB ↑ 0 ↓ 0
2024-05-11 magnet Черепахи – и нет им конца / Turtles All the Way Down (2024) WEB-DL 720p от селезень | P | TVShows 3.87 GB ↑ 1 ↓ 1

Комментарии


Зарегистрируйтесь чтобы добавить комментарий
Торрент клиент
byTorrent - программа для загрузки торрент-файлов.

Скачать byTorrent.exe (1,5 МБ)

Скачать byTorrent.zip (0,6 МБ)

Поддержи torrent.by
российских рублей
(300 российских рублей это 4$)

Обратная связь rss

End game ©