↑↓torrent.by
Поиск
Логин:  Регистрация
Пароль:

Нет / Nope (2022) BDRip 1080p от EniaHD | D, P | IMAX

download Скачать торрент-файл   magnet Магнитная ссылка Размер: 15.15 GB Добавлен: 2024-05-19 05:00
Пиры будут получены из сети DHT
Последний сидер был замечен 2024-06-15 17:45
Нет / Nope Страна: США Бюджет: $68 000 000 Жанр: фантастика, ужасы Год выпуска: 2022 Продолжительность: 02:10:31 Перевод 1: Профессиональный (дублированный) - Bravo Records Georgia / Movie Dubbing Перевод 2: Профессиональный (многоголосый закадровый) - Jaskier 18+ Перевод 3 (украинский): Профессиональный (дублированный) - LeDoyen Субтитры: русские (Forced, 2x Full |Netflix, FOCS|), английские (Full, SDH), французские, немецкие, иврит, хинди, итальянские, португальские, румынские, испанские, украинские (Forced, Full) Режиссер: Джордан Пил / Jordan Peele В ролях: Дэниэл Калуя, Кеке Палмер, Брэндон Переа, Стивен Ян, Майкл Уинкотт, Ренн Шмидт, Кит Дэвид, Майкл Р. Буш, Девон Грайе, Терри Нотари, Барби Феррейра, Донна Миллс, Оз Перкинс, Эдди Джемисон, Джейкоб Ким Описание: Через полгода после смерти отца в результате нелепого несчастного случая брат с сестрой, Оджей и Эмеральд, пытаются удержать на плаву семейный бизнес — ранчо с лошадьми для съёмок в кино и рекламе. Дела идут из рук вон плохо, часть животных пришлось продать, и Оджей уже подумывает избавиться и от ранчо, когда вдруг замечает в окрестностях НЛО. Ребята видят в этом возможность заработка и решают заснять его любой ценой. Тип релиза: BDRip 1080p | SbR Контейнер: MKV Видео: MPEG-4 AVC, 1920x1080 (16:9), 23.976 fps, 12259 kbps Аудио 1: RUS E-AC-3, 5.1, 48 kHz, 640 kbps Аудио 2: RUS E-AC-3, 7.1, 48 kHz, 1536 kbps Аудио 3: UKR E-AC-3, 5.1, 48 kHz, 640 kbps Аудио 4: ENG E-AC-3, 7.1, 48 kHz, 1536 kbps Формат субтитров: softsub (SRT) Навигация по главам: есть
[+] MediaInfo x264 : started at Wed Oct 19 14:17:45 2022 x264 : frame I:1207 Avg QP:12.14 size:251466 x264 : frame P:42222 Avg QP:13.52 size:122041 x264 : frame B:144323 Avg QP:15.18 size: 45340 x264 : consecutive B-frames: 1.3% 3.7% 5.0% 45.2% 9.6% 14.3% 7.5% 12.7% 0.6% 0.1% x264 : mb I I16..4: 6.7% 81.8% 11.5% x264 : mb P I16..4: 1.0% 27.0% 0.7% P16..4: 30.5% 18.6% 12.1% 0.5% 0.1% skip: 9.3% x264 : mb B I16..4: 0.1% 2.3% 0.1% B16..8: 45.8% 14.4% 3.9% direct: 6.1% skip:27.3% L0:52.0% L1:36.4% BI:11.5% x264 : 8x8 transform intra:93.0% inter:55.9% x264 : direct mvs spatial:100.0% temporal:0.0% x264 : coded y,uvDC,uvAC intra: 91.3% 85.9% 77.1% inter: 35.6% 26.2% 10.7% x264 : i16 v,h,dc,p: 39% 16% 13% 32% x264 : i8 v,h,dc,ddl,ddr,vr,hd,vl,hu: 10% 9% 33% 7% 8% 7% 8% 7% 10% x264 : i4 v,h,dc,ddl,ddr,vr,hd,vl,hu: 13% 13% 6% 8% 13% 12% 13% 9% 12% x264 : i8c dc,h,v,p: 64% 15% 12% 9% x264 : Weighted P-Frames: Y:6.1% UV:4.0% x264 : ref P L0: 57.6% 8.8% 22.9% 10.1% 0.5% 0.0% x264 : ref B L0: 89.8% 8.5% 1.7% x264 : ref B L1: 96.1% 3.9% x264 : kb/s:12259.12 x264 : encoded 187752 frames, 17.45 fps, 12259.12 kb/s General Unique ID : 22646539570324689751650284017957482345 (0x1109909B4A038E9983A0279FC4742F69) Complete name : Nope.2022.IMAX.1080p.BluRay.x264-SbR_EniaHD.mkv Format : Matroska Format version : Version 4 File size : 15.1 GiB Duration : 2 h 10 min Overall bit rate : 16.6 Mb/s Frame rate : 23.976 FPS Movie name : Nope (2022) - EniaHD Writing application : mkvmerge v57.0.0 ('Till The End') 64-bit Writing library : libebml v1.4.2 + libmatroska v1.6.4 Video ID : 1 Format : AVC Format/Info : Advanced Video Codec Format profile : High@L4.1 Format settings : CABAC / 4 Ref Frames Format settings, CABAC : Yes Format settings, Reference fra : 4 frames Codec ID : V_MPEG4/ISO/AVC Duration : 2 h 10 min Bit rate : 12.3 Mb/s Width : 1 920 pixels Height : 1 080 pixels Display aspect ratio : 16:9 Frame rate mode : Constant Frame rate : 23.976 (24000/1001) FPS Color space : YUV Chroma subsampling : 4:2:0 Bit depth : 8 bits Scan type : Progressive Bits/(Pixel*Frame) : 0.247 Stream size : 11.2 GiB (74%) Writing library : x264 core 164 r3100+49 ee821bd devel Encoding settings : cabac=1 / ref=4 / deblock=1:-3:-3 / analyse=0x3:0x133 / me=umh / subme=10 / psy=1 / fade_compensate=0.00 / psy_rd=1.00:0.00 / mixed_ref=1 / me_range=32 / chroma_me=1 / trellis=2 / 8x8dct=1 / cqm=0 / deadzone=21,11 / fast_pskip=0 / chroma_qp_offset=-2 / threads=24 / lookahead_threads=4 / sliced_threads=0 / nr=0 / decimate=0 / interlaced=0 / bluray_compat=0 / constrained_intra=0 / fgo=0 / bframes=9 / b_pyramid=2 / b_adapt=2 / b_bias=0 / direct=3 / weightb=1 / open_gop=0 / weightp=2 / keyint=250 / keyint_min=23 / scenecut=40 / intra_refresh=0 / rc=crf / mbtree=0 / crf=16.7000 / qcomp=0.60 / qpmin=0:0:0 / qpmax=69:69:69 / qpstep=4 / ip_ratio=1.30 / pb_ratio=1.20 / aq=3:0.65 / aq-sensitivity=10.00 / aq-factor=1.00:1.00:1.00 / aq2=0 / aq3=0 / zones=0,3538,crf=15.3/6599,12327,crf=15.1/36878,44570,crf=15.1/57638,74187,crf=15.1/107244,123307,crf=15.3 Default : Yes Forced : No Color range : Limited Color primaries : BT.709 Transfer characteristics : BT.709 Matrix coefficients : BT.709 Audio #1 ID : 2 Format : E-AC-3 Format/Info : Enhanced AC-3 Commercial name : Dolby Digital Plus Codec ID : A_EAC3 Duration : 2 h 10 min Bit rate mode : Constant Bit rate : 640 kb/s Channel(s) : 6 channels Channel layout : L R C LFE Ls Rs Sampling rate : 48.0 kHz Frame rate : 31.250 FPS (1536 SPF) Compression mode : Lossy Stream size : 598 MiB (4%) Title : Bravo Records Georgia / Movie Dubbing Language : Russian Service kind : Complete Main Default : Yes Forced : No Audio #2 ID : 3 Format : E-AC-3 Format/Info : Enhanced AC-3 Commercial name : Dolby Digital Plus Format profile : Blu-ray Disc Format settings : Dolby Surround EX Codec ID : A_EAC3 Duration : 2 h 10 min Bit rate mode : Constant Bit rate : 1 536 kb/s Channel(s) : 8 channels Channel layout : L R C LFE Ls Rs Lb Rb Sampling rate : 48.0 kHz Frame rate : 31.250 FPS (1536 SPF) Compression mode : Lossy Stream size : 1.40 GiB (9%) Title : Jaskier Language : Russian Service kind : Complete Main Default : No Forced : No Audio #3 ID : 4 Format : E-AC-3 Format/Info : Enhanced AC-3 Commercial name : Dolby Digital Plus Codec ID : A_EAC3 Duration : 2 h 10 min Bit rate mode : Constant Bit rate : 640 kb/s Channel(s) : 6 channels Channel layout : L R C LFE Ls Rs Sampling rate : 48.0 kHz Frame rate : 31.250 FPS (1536 SPF) Compression mode : Lossy Stream size : 598 MiB (4%) Title : LeDoyen Language : Ukrainian Service kind : Complete Main Default : No Forced : No Audio #4 ID : 5 Format : E-AC-3 Format/Info : Enhanced AC-3 Commercial name : Dolby Digital Plus Format profile : Blu-ray Disc Format settings : Dolby Surround EX Codec ID : A_EAC3 Duration : 2 h 10 min Bit rate mode : Constant Bit rate : 1 536 kb/s Channel(s) : 8 channels Channel layout : L R C LFE Ls Rs Lb Rb Sampling rate : 48.0 kHz Frame rate : 31.250 FPS (1536 SPF) Compression mode : Lossy Stream size : 1.40 GiB (9%) Title : English Language : English Service kind : Complete Main Default : No Forced : No Text #1 ID : 6 Format : UTF-8 Codec ID : S_TEXT/UTF8 Codec ID/Info : UTF-8 Plain Text Duration : 2 h 9 min Bit rate : 1 b/s Frame rate : 0.006 FPS Count of elements : 44 Stream size : 1.47 KiB (0%) Title : Russian (Forced) Language : Russian Default : Yes Forced : No Text #2 ID : 7 Format : UTF-8 Codec ID : S_TEXT/UTF8 Codec ID/Info : UTF-8 Plain Text Duration : 2 h 10 min Bit rate : 59 b/s Frame rate : 0.180 FPS Count of elements : 1409 Stream size : 56.8 KiB (0%) Title : Russian (Netflix) Language : Russian Default : No Forced : No Text #3 ID : 8 Format : UTF-8 Codec ID : S_TEXT/UTF8 Codec ID/Info : UTF-8 Plain Text Duration : 2 h 3 min Bit rate : 72 b/s Frame rate : 0.205 FPS Count of elements : 1527 Stream size : 66.2 KiB (0%) Title : Russian (FOCS) Language : Russian Default : No Forced : No Text #4 ID : 9 Format : UTF-8 Codec ID : S_TEXT/UTF8 Codec ID/Info : UTF-8 Plain Text Duration : 2 h 2 min Bit rate : 46 b/s Frame rate : 0.182 FPS Count of elements : 1337 Stream size : 41.4 KiB (0%) Title : English Language : English Default : No Forced : No Text #5 ID : 10 Format : UTF-8 Codec ID : S_TEXT/UTF8 Codec ID/Info : UTF-8 Plain Text Duration : 2 h 3 min Bit rate : 62 b/s Frame rate : 0.255 FPS Count of elements : 1884 Stream size : 56.0 KiB (0%) Title : English (SDH) Language : English Default : No Forced : No Text #6 ID : 11 Format : UTF-8 Codec ID : S_TEXT/UTF8 Codec ID/Info : UTF-8 Plain Text Duration : 2 h 10 min Bit rate : 34 b/s Frame rate : 0.152 FPS Count of elements : 1184 Stream size : 32.7 KiB (0%) Title : French Language : French Default : No Forced : No Text #7 ID : 12 Format : UTF-8 Codec ID : S_TEXT/UTF8 Codec ID/Info : UTF-8 Plain Text Duration : 2 h 10 min Bit rate : 37 b/s Frame rate : 0.141 FPS Count of elements : 1099 Stream size : 36.1 KiB (0%) Title : German Language : German Default : No Forced : No Text #8 ID : 13 Format : UTF-8 Codec ID : S_TEXT/UTF8 Codec ID/Info : UTF-8 Plain Text Duration : 2 h 10 min Bit rate : 52 b/s Frame rate : 0.173 FPS Count of elements : 1347 Stream size : 50.2 KiB (0%) Title : Hebrew Language : Hebrew Default : No Forced : No Text #9 ID : 14 Format : UTF-8 Codec ID : S_TEXT/UTF8 Codec ID/Info : UTF-8 Plain Text Duration : 2 h 10 min Bit rate : 101 b/s Frame rate : 0.179 FPS Count of elements : 1403 Stream size : 96.7 KiB (0%) Title : Hindi Language : Hindi Default : No Forced : No Text #10 ID : 15 Format : UTF-8 Codec ID : S_TEXT/UTF8 Codec ID/Info : UTF-8 Plain Text Duration : 2 h 10 min Bit rate : 39 b/s Frame rate : 0.160 FPS Count of elements : 1248 Stream size : 37.9 KiB (0%) Title : Italian Language : Italian Default : No Forced : No Text #11 ID : 16 Format : UTF-8 Codec ID : S_TEXT/UTF8 Codec ID/Info : UTF-8 Plain Text Duration : 2 h 10 min Bit rate : 40 b/s Frame rate : 0.180 FPS Count of elements : 1409 Stream size : 38.6 KiB (0%) Title : Portuguese Language : Portuguese (BR) Default : No Forced : No Text #12 ID : 17 Format : UTF-8 Codec ID : S_TEXT/UTF8 Codec ID/Info : UTF-8 Plain Text Duration : 2 h 10 min Bit rate : 36 b/s Frame rate : 0.131 FPS Count of elements : 1025 Stream size : 34.7 KiB (0%) Title : Romanian Language : Romanian Default : No Forced : No Text #13 ID : 18 Format : UTF-8 Codec ID : S_TEXT/UTF8 Codec ID/Info : UTF-8 Plain Text Duration : 2 h 10 min Bit rate : 41 b/s Frame rate : 0.178 FPS Count of elements : 1388 Stream size : 39.1 KiB (0%) Title : Spanish Language : Spanish (Latin America) Default : No Forced : No Text #14 ID : 19 Format : UTF-8 Codec ID : S_TEXT/UTF8 Codec ID/Info : UTF-8 Plain Text Duration : 2 h 10 min Bit rate : 58 b/s Frame rate : 0.177 FPS Count of elements : 1387 Stream size : 56.2 KiB (0%) Title : Ukrainian Language : Ukrainian Default : No Forced : No Text #15 ID : 20 Format : UTF-8 Codec ID : S_TEXT/UTF8 Codec ID/Info : UTF-8 Plain Text Duration : 2 h 9 min Bit rate : 1 b/s Frame rate : 0.005 FPS Count of elements : 41 Stream size : 1.33 KiB (0%) Title : Ukrainian (Forced) Language : Ukrainian Default : No Forced : No Menu 00:00:00.000 : en:Studio Logo 00:00:49.000 : en:Scene 2 00:01:43.000 : en:Scene 3 00:06:38.000 : en:Title Sequence 00:06:46.000 : en:Opening Credits 00:08:10.000 : en:Scene 6 00:12:49.000 : en:Scene 7 00:19:06.000 : en:Scene 8 00:25:33.000 : en:Scene 9 00:32:37.000 : en:Scene 10 00:40:01.000 : en:Scene 11 00:46:42.000 : en:Scene 12 00:50:03.000 : en:Scene 13 00:57:38.000 : en:Scene 14 00:59:08.000 : en:Scene 15 01:00:04.000 : en:Scene 16 01:04:25.000 : en:Scene 17 01:11:25.000 : en:Scene 18 01:14:41.000 : en:Scene 19 01:21:18.000 : en:Scene 20 01:27:46.000 : en:Scene 21 01:32:51.000 : en:Scene 22 01:36:04.000 : en:Scene 23 01:42:05.000 : en:Scene 24 01:48:09.000 : en:Scene 25 01:54:22.000 : en:Scene 26 01:59:23.000 : en:Scene 27 02:03:44.000 : en:End Credits
[+] Скриншоты

Всего файлов в раздаче: 1 
Nope.2022.IMAX.1080p.BluRay.x264-SbR_EniaHD.mkv15.15 GB

Похожие раздачи по запросу - Нет
2024-06-03 magnet Бова Ильжиева - Английский для тех, у кого нет времени на английский (2020) PDF 11.89 MB ↑ 0 ↓ 0
2024-05-19 magnet Нет / Nope (2022) HDRip-AVC от DoMiNo & селезень | D | IMAX | Лицензия 2.30 GB ↑ 0 ↓ 0
2024-05-18 magnet Ричард Руссо - Дураков нет (2024) MP3 1.51 GB ↑ 0 ↓ 0
2024-05-11 magnet Черепахи – и нет им конца / Turtles All the Way Down (2024) WEB-DL 720p от селезень | P | TVShows 3.87 GB ↑ 1 ↓ 0

Комментарии


Зарегистрируйтесь чтобы добавить комментарий
Торрент клиент
byTorrent - программа для загрузки торрент-файлов.

Скачать byTorrent.exe (1,5 МБ)

Скачать byTorrent.zip (0,6 МБ)

Поддержи torrent.by
российских рублей
(300 российских рублей это 4$)

Обратная связь rss

End game ©