↑↓torrent.by
Поиск
Логин:  Регистрация
Пароль:

Уэнсдэй / Wednesday [S01] (2022) BDRip 1080p | D, P, A

download Скачать торрент-файл   magnet Магнитная ссылка Размер: 48.06 GB Раздают: 0 Качают: 1 Добавлен: 2024-05-19 11:00
Пиры будут получены из сети DHT
Последний сидер был замечен 2024-05-19 11:00
Название: Уэнсдэй Оригинальное название: Wednesday Год выхода: 2022 Производство: США, Румыния / Tim Burton Productions, MGM Television, Millar Gough Ink, Toluca Pictures, Netflix Жанр: Фэнтези, комедия, криминал, детектив Перевод: Дублированный неофициальный, профессиональный многоголосый, авторский одноголосый Продолжительность: 8х ~00:45:00 Режиссёры: Тим Бёртон, Джеймс Маршалл, Gandja Monteiro В ролях: Дженна Ортега, Эмма Майерс, Хантер Дуэн, Перси Хайнс Уайт, Джой Сандэй, Джорджи Фармер, Кристина Риччи, Виктор Доробанту, Гвендолин Кристи, Рики Линдхоум Описание: Обычная общеобразовательная школа - не лучшее место для таких странных детей, как Уэнсдэй и её брат Пагсли, часто выступающий подопытным в её изощренных пытках. Однажды Уэнсдэй решает отомстить обидчикам братца (ведь только она может издеваться над ним) весьма экзотичным образом - выпустив пираний в бассейн. Ученицу сразу исключают, а её родителям, женщине-вамп Мортише и её колоритному мужу Гомесу ничего другого не остаётся, как отправить бунтующую дочь в академию «Нэвермор», где они познакомились и провели бурную юность. В стенах этого готического замка Уэнсдэй должна почувствовать себя в своей тарелке, ведь тут учатся такие же чудики, как она сама — от вампиров до оборотней и сирен. Тем не менее и здесь непримиримая и колкая Уэнсдэй не может найти своего места. Впрочем, заботят девочку не безуспешные остроты новых одноклассников, а серия жестоких убийств, происходящая в соседнем «нормальном» городке Джерико. Без особого удовольствия Аддамс объединяется с до зубовного скрежета доброжелательной соседкой Инид и ещё парочкой местных изгоев, чтобы покончить с преступлениями и заодно раскрыть ужасную тайну собственной семьи. Правда, если подросткам самим удастся выжить после рискованных ночных похождений или утомительных дневных нравоучений приставучих взрослых… Формат: MKV Качество: BDRip 1080p Видео: MPEG-4 AVC / ~11.2 Mbps / 1920x1034 / 0.233 Бит/(Пиксели*Кадры) / 23,976fps Аудио 01: E-AC3, 6 ch, 1024 kbps | Русский, MVO | NewStudio | Аудио 02: E-AC3, 6 ch, 1024 kbps | Русский, MVO | HDRezka | Аудио 03: E-AC3, 6 ch, 1024 kbps | Русский, MVO | LostFilm | Аудио 04: AC-3, 6 ch, 384 kbps | Русский, MVO | TVShows | Аудио 05: E-AC3, 6 ch, 1024 kbps | Русский, MVO | NewComers | Аудио 06: AC-3, 2 ch, 256 kbps | Русский, DUB | Red Head Sound | Аудио 07: E-AC3 JOC, 6 ch, 1024 kbps | Русский, AVO | Юрий Сербин | Аудио 08: E-AC3, 6 ch, 1024 kbps | Original | Субтитры: Русские (Forced, Full), английские (Forced, Full, SDH)
[+] MediainfoОбщее Уникальный идентификатор : 309915606931498409286811060460584647899 (0xE92793239E1C342AD53BCC5B2DDB3CDB) Полное имя : E:/Раздачи/Wednesday.S01.1080p.BDRip.x264/Wednesday.S01E01.Wednesdays.Child.is.Full.of.Woe.1080p.BDRip.x264.mkv Формат : Matroska Версия формата : Version 4 Размер файла : 6,87 Гбайт Продолжительность : 55 м. 51 с. Общий поток : 17,6 Мбит/сек Частота кадров : 23,976 кадра/сек Дата кодирования : 2024-05-10 12:15:06 UTC Программа кодирования : mkvmerge v81.0 ('Milliontown') 64-bit Библиотека кодирования : libebml v1.4.4 + libmatroska v1.7.1 Обложка : Yes Attachments : Cover_Wednesday.jpg Видео Идентификатор : 1 Формат : AVC Формат/Информация : Advanced Video Codec Профиль формата : High@L4.1 Настройки формата : CABAC / 4 Ref Frames Параметр CABAC формата : Да Параметр RefFrames формата : 4 кадра Идентификатор кодека : V_MPEG4/ISO/AVC Продолжительность : 55 м. 51 с. Битрейт : 11,1 Мбит/сек Ширина : 1 920 пикселей Высота : 1 034 пикселя Соотношение сторон : 1,85:1 Режим частоты кадров : Постоянный Частота кадров : 23,976 (24000/1001) кадра/сек Цветовое пространство : YUV Субдискретизация насыщенности : 4:2:0 Битовая глубина : 8 бит Тип развёртки : Прогрессивная Бит/(Пиксели*Кадры) : 0.233 Размер потока : 4,32 Гбайт (63%) Библиотека кодирования : x264 core 164 r3173 4815cca Настройки программы : cabac=1 / ref=4 / deblock=1:-3:-3 / analyse=0x3:0x133 / me=umh / subme=9 / psy=1 / psy_rd=1.00:0.15 / mixed_ref=1 / me_range=16 / chroma_me=1 / trellis=2 / 8x8dct=1 / cqm=0 / deadzone=21,11 / fast_pskip=0 / chroma_qp_offset=-3 / threads=32 / lookahead_threads=2 / sliced_threads=0 / nr=0 / decimate=1 / interlaced=0 / bluray_compat=0 / constrained_intra=0 / bframes=3 / b_pyramid=2 / b_adapt=2 / b_bias=0 / direct=3 / weightb=1 / open_gop=0 / weightp=2 / keyint=250 / keyint_min=23 / scenecut=40 / intra_refresh=0 / rc_lookahead=60 / rc=crf / mbtree=1 / crf=17.0 / qcomp=0.60 / qpmin=0 / qpmax=69 / qpstep=4 / ip_ratio=1.40 / aq=1:1.00 Default : Да Forced : Нет Аудио #1 Идентификатор : 2 Формат : E-AC-3 Формат/Информация : Enhanced AC-3 Коммерческое название : Dolby Digital Plus Идентификатор кодека : A_EAC3 Продолжительность : 55 м. 51 с. Вид битрейта : Постоянный Битрейт : 1 024 Кбит/сек Каналы : 6 каналов Channel layout : L R C LFE Ls Rs Частота : 48,0 КГц Частота кадров : 31,250 кадров/сек (1536 SPF) Метод сжатия : С потерями Размер потока : 409 Мбайт (6%) Заголовок : NewStudio Язык : Russian Service kind : Complete Main Default : Да Forced : Нет Аудио #2 Идентификатор : 3 Формат : E-AC-3 Формат/Информация : Enhanced AC-3 Коммерческое название : Dolby Digital Plus Идентификатор кодека : A_EAC3 Продолжительность : 55 м. 51 с. Вид битрейта : Постоянный Битрейт : 1 024 Кбит/сек Каналы : 6 каналов Channel layout : L R C LFE Ls Rs Частота : 48,0 КГц Частота кадров : 31,250 кадров/сек (1536 SPF) Метод сжатия : С потерями Размер потока : 409 Мбайт (6%) Заголовок : HDRezka Язык : Russian Service kind : Complete Main Default : Нет Forced : Нет Аудио #3 Идентификатор : 4 Формат : E-AC-3 Формат/Информация : Enhanced AC-3 Коммерческое название : Dolby Digital Plus Идентификатор кодека : A_EAC3 Продолжительность : 55 м. 51 с. Вид битрейта : Постоянный Битрейт : 1 024 Кбит/сек Каналы : 6 каналов Channel layout : L R C LFE Ls Rs Частота : 48,0 КГц Частота кадров : 31,250 кадров/сек (1536 SPF) Метод сжатия : С потерями Размер потока : 409 Мбайт (6%) Заголовок : LostFilm Язык : Russian Service kind : Complete Main Default : Нет Forced : Нет Аудио #4 Идентификатор : 5 Формат : AC-3 Формат/Информация : Audio Coding 3 Коммерческое название : Dolby Digital Идентификатор кодека : A_AC3 Продолжительность : 55 м. 51 с. Вид битрейта : Постоянный Битрейт : 384 Кбит/сек Каналы : 6 каналов Channel layout : L R C LFE Ls Rs Частота : 48,0 КГц Частота кадров : 31,250 кадров/сек (1536 SPF) Метод сжатия : С потерями Размер потока : 153 Мбайт (2%) Заголовок : TVShows Язык : Russian Service kind : Complete Main Default : Нет Forced : Нет Аудио #5 Идентификатор : 6 Формат : E-AC-3 Формат/Информация : Enhanced AC-3 Коммерческое название : Dolby Digital Plus Идентификатор кодека : A_EAC3 Продолжительность : 55 м. 51 с. Вид битрейта : Постоянный Битрейт : 1 024 Кбит/сек Каналы : 6 каналов Channel layout : L R C LFE Ls Rs Частота : 48,0 КГц Частота кадров : 31,250 кадров/сек (1536 SPF) Метод сжатия : С потерями Размер потока : 409 Мбайт (6%) Заголовок : NewComers Язык : Russian Service kind : Complete Main Default : Нет Forced : Нет Аудио #6 Идентификатор : 7 Формат : AC-3 Формат/Информация : Audio Coding 3 Коммерческое название : Dolby Digital Идентификатор кодека : A_AC3 Продолжительность : 55 м. 51 с. Вид битрейта : Постоянный Битрейт : 256 Кбит/сек Каналы : 2 канала Channel layout : L R Частота : 48,0 КГц Частота кадров : 31,250 кадров/сек (1536 SPF) Метод сжатия : С потерями Размер потока : 102 Мбайт (1%) Заголовок : Red Head Sound Язык : Russian Service kind : Complete Main Default : Нет Forced : Нет Аудио #7 Идентификатор : 8 Формат : E-AC-3 JOC Формат/Информация : Enhanced AC-3 with Joint Object Coding Коммерческое название : Dolby Digital Plus with Dolby Atmos Идентификатор кодека : A_EAC3 Продолжительность : 55 м. 51 с. Вид битрейта : Постоянный Битрейт : 768 Кбит/сек Каналы : 6 каналов Channel layout : L R C LFE Ls Rs Частота : 48,0 КГц Частота кадров : 31,250 кадров/сек (1536 SPF) Метод сжатия : С потерями Размер потока : 307 Мбайт (4%) Заголовок : Сербин Язык : Russian Service kind : Complete Main Default : Нет Forced : Нет Complexity index : 16 Number of dynamic objects : 15 Bed channel count : 1 канал Bed channel configuration : LFE Аудио #8 Идентификатор : 9 Формат : E-AC-3 Формат/Информация : Enhanced AC-3 Коммерческое название : Dolby Digital Plus Идентификатор кодека : A_EAC3 Продолжительность : 55 м. 51 с. Вид битрейта : Постоянный Битрейт : 1 024 Кбит/сек Каналы : 6 каналов Channel layout : L R C LFE Ls Rs Частота : 48,0 КГц Частота кадров : 31,250 кадров/сек (1536 SPF) Метод сжатия : С потерями Размер потока : 409 Мбайт (6%) Язык : English Service kind : Complete Main Default : Нет Forced : Нет Текст #1 Идентификатор : 10 Формат : UTF-8 Идентификатор кодека : S_TEXT/UTF8 Идентификатор кодека/Информация : UTF-8 Plain Text Продолжительность : 54 м. 52 с. Битрейт : 3 бит/сек Частота кадров : 0,010 кадр/сек Count of elements : 32 Размер потока : 1,25 Кбайт (0%) Заголовок : Rus (Forced) Язык : Russian Default : Да Forced : Нет Текст #2 Идентификатор : 11 Формат : UTF-8 Идентификатор кодека : S_TEXT/UTF8 Идентификатор кодека/Информация : UTF-8 Plain Text Продолжительность : 53 м. 42 с. Битрейт : 102 бит/сек Частота кадров : 0,209 кадр/сек Count of elements : 673 Размер потока : 40,5 Кбайт (0%) Заголовок : Rus (Full) Язык : Russian Default : Нет Forced : Нет Текст #3 Идентификатор : 12 Формат : UTF-8 Идентификатор кодека : S_TEXT/UTF8 Идентификатор кодека/Информация : UTF-8 Plain Text Продолжительность : 53 м. 24 с. Битрейт : 63 бит/сек Частота кадров : 0,215 кадр/сек Count of elements : 688 Размер потока : 24,7 Кбайт (0%) Язык : English Default : Нет Forced : Нет Текст #4 Идентификатор : 13 Формат : UTF-8 Идентификатор кодека : S_TEXT/UTF8 Идентификатор кодека/Информация : UTF-8 Plain Text Продолжительность : 53 м. 42 с. Битрейт : 73 бит/сек Частота кадров : 0,265 кадр/сек Count of elements : 853 Размер потока : 28,9 Кбайт (0%) Заголовок : SDH Язык : English Default : Нет Forced : Нет Меню 00:00:00.000 : en:Chapter 01 00:03:50.605 : en:Chapter 02 00:11:10.086 : en:Chapter 03 00:18:09.880 : en:Chapter 04 00:27:11.255 : en:Chapter 05 00:36:52.669 : en:Chapter 06 00:45:31.771 : en:Chapter 07 00:53:49.852 : en:Chapter 08 00:55:50.764 : en:Chapter 09
[+] Скриншоты

Всего файлов в раздаче: 8 
Wednesday.S01E01.Wednesdays.Child.is.Full.of.Woe.1080p.BDRip.x264.RGzsRutracker.mkv6.87 GB
Wednesday.S01E02.Woe.is.the.Loneliest.Number.1080p.BDRip.x264.RGzsRutracker.mkv5.75 GB
Wednesday.S01E03.Friend.or.Woe.1080p.BDRip.x264.RGzsRutracker.mkv5.78 GB
Wednesday.S01E04.Woe.What.a.Night.1080p.BDRip.x264.RGzsRutracker.mkv6.32 GB
Wednesday.S01E05.You.Reap.What.You.Woe.1080p.BDRip.x264.RGzsRutracker.mkv5.86 GB
Wednesday.S01E06.Quid.Pro.Woe.1080p.BDRip.x264.RGzsRutracker.mkv6.11 GB
Wednesday.S01E07.If.You.Dont.Woe.Me.By.Now.1080p.BDRip.x264.RGzsRutracker.mkv5.60 GB
Wednesday.S01E08.A.Murder.of.Woes.1080p.BDRip.x264.RGzsRutracker.mkv5.77 GB

Комментарии


Зарегистрируйтесь чтобы добавить комментарий
Торрент клиент
byTorrent - программа для загрузки торрент-файлов.

Скачать byTorrent.exe (1,5 МБ)

Скачать byTorrent.zip (0,6 МБ)

Поддержи torrent.by
российских рублей
(300 российских рублей это 4$)

Обратная связь rss

End game ©