↑↓torrent.by
Поиск
Логин:  Регистрация
Пароль:

Маяк 23 / Beacon 23 [S01] (2023) WEB-DL 1080p | Кравец-Рекордз, LostFilm, TVShows, NewComers

download Скачать торрент-файл   magnet Магнитная ссылка Размер: 26.35 GB Добавлен: 2024-05-19 11:00
Пиры будут получены из сети DHT
Последний сидер был замечен 2024-05-21 20:22
Информация о фильме Название: Маяк 23 Оригинальное название: Beacon 23 Год выхода: 2023 Жанр: фантастика, триллер, драма, детектив Режиссер: Левин Уэбб, Дэниэл Персивал, Оз Скотт, Грег Биман В ролях: Стефан Джеймс, Лина Хиди, Наташа Мумба, Уэйд Богерт О’Брайэн, Эрик Ланж, Эллен Вонг, Бо Мартин, Марк Менчака, Стивен Рут, Кортни Ламанна О фильме: XXIII век. Сеть маяков по всей галактике помогает космическим шаттлам безопасно путешествовать. Бывший военный Халан и сотрудница правительства Астер оказываются заперты на маяке в самом дальнем уголке космоса и пытаются сквозь страхи и подозрения решить, кто они — друзья или враги. Страна: США Студия: Boat Rocker Studios, Peephole Productions, Platform One Media Продолжительность: 8 x ~ 00:50:00 Перевод: Профессиональный многоголосый (Кравец-Рекордз, LostFilm, TVShows, NewComers) Файл Кодек: H.264 Качество: WEB-DL 1080p Видео: 1920x1080, ~ 7715 Kбит/сек, 23,976 fps Аудио #1: AC-3, 48 kHz, 6 ch, 384 Kbps (Кравец-Рекордз) Аудио #2: AC-3, 48 kHz, 2 ch, 384 Kbps (LostFilm) Аудио #3: AC-3, 48 kHz, 6 ch, 384 Kbps (TVShows) Аудио #4: AC-3, 48 kHz, 6 ch, 640 Kbps (NewComers) Аудио #5: E-AC-3, 48 kHz, 6 ch, 640 Kbps (Original) Субтитры: Русские (Forced, Full), английские (full, SDH)
[+] Скриншоты
[+] MediaInfoОбщее Уникальный идентификатор : 314193159099659389222222536383403492477 (0xEC5F66BE6CFB2282A18BB90ABF35847D) Полное имя : E:_Сериалы_СериалыМаяк Формат : Matroska Версия формата : Version 4 Размер файла : 3,47 Гбайт Продолжительность : 48 м. 53 с. Общий поток : 10,2 Мбит/сек Частота кадров : 23,976 кадра/сек Дата кодирования : 2023-11-15 19:08:04 UTC Программа кодирования : mkvmerge v80.0 ('Roundabout') 64-bit Библиотека кодирования : libebml v1.4.4 + libmatroska v1.7.1 Видео Идентификатор : 1 Формат : AVC Формат/Информация : Advanced Video Codec Профиль формата : High@L4 Настройки формата : CABAC / 4 Ref Frames Параметр CABAC формата : Да Параметр RefFrames формата : 4 кадра Идентификатор кодека : V_MPEG4/ISO/AVC Продолжительность : 48 м. 53 с. Вид битрейта : Постоянный Битрейт : 7 717 Кбит/сек Номинальный битрейт : 10 000 Кбит/сек Ширина : 1 920 пикселей Высота : 1 080 пикселей Соотношение сторон : 16:9 Режим частоты кадров : Постоянный Частота кадров : 23,976 (24000/1001) кадра/сек Цветовое пространство : YUV Субдискретизация насыщенности : 4:2:0 Битовая глубина : 8 бит Тип развёртки : Прогрессивная Бит/(Пиксели*Кадры) : 0.155 Размер потока : 2,64 Гбайт (76%) Язык : English Default : Да Forced : Нет Цветовой диапазон : Limited Основные цвета : BT.709 Характеристики трансфера : BT.709 Коэффициенты матрицы : BT.709 Аудио #1 Идентификатор : 2 Формат : AC-3 Формат/Информация : Audio Coding 3 Коммерческое название : Dolby Digital Идентификатор кодека : A_AC3 Продолжительность : 48 м. 53 с. Вид битрейта : Постоянный Битрейт : 384 Кбит/сек Каналы : 6 каналов Channel layout : L R C LFE Ls Rs Частота : 48,0 КГц Частота кадров : 31,250 кадров/сек (1536 SPF) Метод сжатия : С потерями Размер потока : 134 Мбайт (4%) Заголовок : Kravec Язык : Russian Service kind : Complete Main Default : Да Forced : Нет Аудио #2 Идентификатор : 3 Формат : AC-3 Формат/Информация : Audio Coding 3 Коммерческое название : Dolby Digital Идентификатор кодека : A_AC3 Продолжительность : 48 м. 53 с. Вид битрейта : Постоянный Битрейт : 384 Кбит/сек Каналы : 2 канала Channel layout : L R Частота : 48,0 КГц Частота кадров : 31,250 кадров/сек (1536 SPF) Метод сжатия : С потерями Размер потока : 134 Мбайт (4%) Заголовок : LF Язык : Russian Service kind : Complete Main Default : Да Forced : Нет Аудио #3 Идентификатор : 4 Формат : AC-3 Формат/Информация : Audio Coding 3 Коммерческое название : Dolby Digital Идентификатор кодека : A_AC3 Продолжительность : 48 м. 53 с. Вид битрейта : Постоянный Битрейт : 384 Кбит/сек Каналы : 6 каналов Channel layout : L R C LFE Ls Rs Частота : 48,0 КГц Частота кадров : 31,250 кадров/сек (1536 SPF) Метод сжатия : С потерями Размер потока : 134 Мбайт (4%) Заголовок : TVS Язык : Russian Service kind : Complete Main Default : Да Forced : Нет Аудио #4 Идентификатор : 5 Формат : AC-3 Формат/Информация : Audio Coding 3 Коммерческое название : Dolby Digital Идентификатор кодека : A_AC3 Продолжительность : 48 м. 53 с. Вид битрейта : Постоянный Битрейт : 640 Кбит/сек Каналы : 6 каналов Channel layout : L R C LFE Ls Rs Частота : 48,0 КГц Частота кадров : 31,250 кадров/сек (1536 SPF) Метод сжатия : С потерями Размер потока : 224 Мбайт (6%) Заголовок : NC Язык : Russian Service kind : Complete Main Default : Да Forced : Нет Аудио #5 Идентификатор : 6 Формат : E-AC-3 Формат/Информация : Enhanced AC-3 Коммерческое название : Dolby Digital Plus Идентификатор кодека : A_EAC3 Продолжительность : 48 м. 53 с. Вид битрейта : Постоянный Битрейт : 640 Кбит/сек Каналы : 6 каналов Channel layout : L R C LFE Ls Rs Частота : 48,0 КГц Частота кадров : 31,250 кадров/сек (1536 SPF) Метод сжатия : С потерями Размер потока : 224 Мбайт (6%) Заголовок : Eng Язык : English Service kind : Complete Main Default : Нет Forced : Нет Текст #1 Идентификатор : 7 Формат : UTF-8 Идентификатор кодека : S_TEXT/UTF8 Идентификатор кодека/Информация : UTF-8 Plain Text Продолжительность : 25 м. 56 с. Битрейт : 9 бит/сек Частота кадров : 0,021 кадр/сек Count of elements : 32 Размер потока : 1,78 Кбайт (0%) Заголовок : Forc Язык : Russian Default : Да Forced : Нет Текст #2 Идентификатор : 8 Формат : UTF-8 Идентификатор кодека : S_TEXT/UTF8 Идентификатор кодека/Информация : UTF-8 Plain Text Продолжительность : 47 м. 38 с. Битрейт : 80 бит/сек Частота кадров : 0,158 кадр/сек Count of elements : 452 Размер потока : 28,2 Кбайт (0%) Заголовок : Rus Язык : Russian Default : Нет Forced : Нет Текст #3 Идентификатор : 9 Формат : UTF-8 Идентификатор кодека : S_TEXT/UTF8 Идентификатор кодека/Информация : UTF-8 Plain Text Продолжительность : 47 м. 9 с. Битрейт : 51 бит/сек Частота кадров : 0,206 кадр/сек Count of elements : 583 Размер потока : 17,6 Кбайт (0%) Заголовок : Eng Язык : English Default : Нет Forced : Нет Текст #4 Идентификатор : 10 Формат : UTF-8 Идентификатор кодека : S_TEXT/UTF8 Идентификатор кодека/Информация : UTF-8 Plain Text Продолжительность : 47 м. 52 с. Битрейт : 56 бит/сек Частота кадров : 0,242 кадр/сек Count of elements : 696 Размер потока : 19,9 Кбайт (0%) Заголовок : SDH Язык : English Default : Нет Forced : Нет Меню 00:00:00.000 : en:Studio Logo 00:00:14.968 : en:Scene 3 00:01:11.968 : en:Scene 4 00:05:13.968 : en:Opening Credits 00:05:45.968 : en:Scene 6 00:13:17.968 : en:Scene 7 00:14:43.968 : en:Scene 8 00:15:44.968 : en:Scene 9 00:16:12.968 : en:Scene 10 00:17:12.968 : en:Scene 11 00:17:41.968 : en:Scene 12 00:18:03.968 : en:Scene 13 00:18:39.968 : en:Scene 14 00:20:03.968 : en:Scene 15 00:20:49.968 : en:Scene 16 00:22:19.968 : en:Scene 17 00:23:08.968 : en:Scene 18 00:23:27.968 : en:Scene 19 00:26:07.968 : en:Scene 20 00:26:27.968 : en:Scene 21 00:28:03.968 : en:Scene 22 00:29:38.968 : en:Scene 23 00:30:41.968 : en:Scene 24 00:31:23.968 : en:Scene 25 00:32:16.968 : en:Scene 26 00:33:08.968 : en:Scene 27 00:34:50.968 : en:Scene 28 00:36:16.968 : en:Scene 29 00:37:58.968 : en:Scene 30 00:38:37.968 : en:Scene 31 00:40:37.968 : en:Scene 32 00:41:34.968 : en:Scene 33 00:42:41.968 : en:Scene 34 00:44:56.968 : en:Scene 35 00:45:36.968 : en:Scene 36 00:46:27.968 : en:Scene 37 00:47:12.968 : en:Scene 38 00:48:13.968 : en:End Credits
Релиз от: RG Зарубежные сериалы

Всего файлов в раздаче: 8 
Beacon.23.S01E01.WEBDL.1080p.RGzsRutracker.mkv3.47 GB
Beacon.23.S01E02.WEBDL.1080p.RGzsRutracker.mkv3.26 GB
Beacon.23.S01E03.WEBDL.1080p.RGzsRutracker.mkv3.38 GB
Beacon.23.S01E04.WEBDL.1080p.RGzsRutracker.mkv2.90 GB
Beacon.23.S01E05.WEBDL.1080p.RGzsRutracker.mkv3.41 GB
Beacon.23.S01E06.WEBDL.1080p.RGzsRutracker.mkv3.47 GB
Beacon.23.S01E07.WEBDL.1080p.RGzsRutracker.mkv3.22 GB
Beacon.23.S01E08.WEBDL.1080p.RGzsRutracker.mkv3.25 GB

Похожие раздачи по запросу - Маяк
2024-05-31 magnet Маяк 23 / Beacon 23 [S02] (2024) WEB-DLRip-AVC от DoMiNo & селезень | Кравец-Рекордз 5.14 GB ↑ 0 ↓ 0
2024-05-29 magnet Маяк 23 / Beacon 23 [S02] (2024) WEB-DL 1080p от NewComers | P 21.28 GB ↑ 0 ↓ 1
2024-05-29 magnet Маяк 23 / Beacon 23 [S02] (2023) WEB-DLRip | NewComers 2.86 GB ↑ 0 ↓ 0
2024-05-22 magnet Маяк 23 / Beacon 23 [02x01-07 из 08] (2024) WEB-DL 1080p от NewComers | P 19.23 GB ↑ 0 ↓ 0
2024-05-16 magnet Маяк 23 / Beacon 23 [02x01-06 из 08] (2024) WEB-DLRip-AVC от DoMiNo & селезень | Кравец-Рекордз 3.89 GB ↑ 0 ↓ 0
2024-05-09 magnet Маяк 23 / Beacon 23 [02x01-05 из 08] (2024) WEB-DLRip-AVC от DoMiNo & селезень | Кравец-Рекордз 3.27 GB ↑ 0 ↓ 0
2024-04-16 magnet Маяк 23 / Beacon 23 [02x01-02 из 08] (2023) WEB-DLRip | NewComers 829.93 MB ↑ 0 ↓ 0

Кто качает (только для создателя раздачи и модераторов): Локальные пиры отсутствуют

Комментарии


Зарегистрируйтесь чтобы добавить комментарий
Торрент клиент
byTorrent - программа для загрузки торрент-файлов.

Скачать byTorrent.exe (1,5 МБ)

Скачать byTorrent.zip (0,6 МБ)

Поддержи torrent.by
российских рублей
(300 российских рублей это 4$)

Обратная связь rss

End game ©