↑↓torrent.by
Поиск
Логин:  Регистрация
Пароль:

Смерть в горах / High Desert Kill (1989) BDRip-AVC | A

download Скачать торрент-файл   magnet Магнитная ссылка Размер: 1.78 GB Добавлен: 2024-05-19 17:00
Пиры будут получены из сети DHT
Последний сидер был замечен 2024-05-22 16:48
Смерть в горах Информация о фильме Год релиза: 1990 Выпущено: США Жанр: ужасы, фантастика, боевик, триллер Режиссер: Гарри Фальк В ролях: Энтони Джиари, Марк Сингер, Мика Грант, Чак Коннорс,Вон Армстронг, Deborah Anne Mansy, Лори Бердсонг О фильме: Доктор Джим Коул организовывает выезд на охоту для Рэя Беттенкампа, у которого недавно погиб его дядя Пол. Джим, Пол и Брэд Мюллер каждый год выезжали высоко в горы в штат Нью-Мексико, где устраивали традиционную охоту. И теперь, после смерти Пола, они решили восполнить пробел его племянником – красавчиком-киноактером. Прибыв на место, они обнаруживают там еще одного охотника – старика Стэна, а чуть дальше лагерь двух симпатичных девушек Кэтлин и Терри. Неплохая вроде бы собралась компания, и они чудно бы провели время, если бы не начавшиеся странные случаи массового помешательства. Продолжительность: 01:31:46 Перевод: Авторский (одноголосый закадровый) Вартан Дохалов Субтитры: английские Качество видео: BDRip-AVC Формат видео: MKV Видео: MPEG4 Video (H264) 640x480 23.976fps Bit rate 2 354 kb/s Аудиодорожка: Dolby AC3 48000Hz 2 сh (mono) 192kbps Оригинальная аудиодорожка: AAC 48000Hz 2 ch 230 kb/s English Формат субтитров: softsub (SRT) Реклама: Отсутствует Релиз от: ale_x2008
[+] MediaInfo Смерть в горах (High Desert Kill) BDRip-AVC .mkv Format : Matroska Format version : Version 4 File size : 1.78 GiB Duration : 1 h 31 min Overall bit rate : 2 778 kb/s Frame rate : 23.976 FPS Movie name : High Desert Kill 480p BluRay - HJ Encoded date : 2024-05-14 13:48:21 UTC Writing application : mkvmerge v71.0.0 ('Altitude') 64-bit Writing library : libebml v1.4.4 + libmatroska v1.7.1 Video ID : 1 Format : AVC Format/Info : Advanced Video Codec Format profile : High@L4.1 Format settings : CABAC / 16 Ref Frames Format settings, CABAC : Yes Format settings, Reference : 16 frames Codec ID : V_MPEG4/ISO/AVC Duration : 1 h 31 min Bit rate : 2 354 kb/s Width : 640 pixels Height : 480 pixels Display aspect ratio : 4:3 Frame rate mode : Constant Frame rate : 23.976 (24000/1001) FPS Color space : YUV Chroma subsampling : 4:2:0 Bit depth : 8 bits Scan type : Progressive Bits/(Pixel*Frame) : 0.320 Stream size : 1.51 GiB (85%) Writing library : x264 core 164 r3065 ae03d92 Encoding settings : cabac=1 / ref=16 / deblock=1:-3:-3 / analyse=0x3:0x133 / me=umh / subme=11 / psy=1 / psy_rd=1.00:0.00 / mixed_ref=1 / me_range=32 / chroma_me=1 / trellis=2 / 8x8dct=1 / cqm=0 / deadzone=21,11 / fast_pskip=0 / chroma_qp_offset=-2 / threads=15 / lookahead_threads=3 / sliced_threads=0 / nr=0 / decimate=0 / interlaced=0 / bluray_compat=0 / constrained_intra=0 / bframes=16 / b_pyramid=2 / b_adapt=2 / b_bias=0 / direct=3 / weightb=1 / open_gop=0 / weightp=2 / keyint=240 / keyint_min=24 / scenecut=40 / intra_refresh=0 / rc_lookahead=60 / rc=crf / mbtree=0 / crf=17.0 / qcomp=0.60 / qpmin=0 / qpmax=69 / qpstep=4 / vbv_maxrate=62500 / vbv_bufsize=78125 / crf_max=0.0 / nal_hrd=none / filler=0 / ip_ratio=1.40 / pb_ratio=1.30 / aq=2:1.00 Default : Yes Forced : No Color range : Limited Color primaries : BT.709 Transfer characteristics : BT.709 Matrix coefficients : BT.709 Audio #1 ID : 2 Format : AC-3 Format/Info : Audio Coding 3 Commercial name : Dolby Digital Codec ID : A_AC3 Duration : 1 h 31 min Bit rate mode : Constant Bit rate : 192 kb/s Channel(s) : 2 channels Channel layout : L R Sampling rate : 48.0 kHz Frame rate : 31.250 FPS (1536 SPF) Compression mode : Lossy Stream size : 126 MiB (7%) Language : Russian Service kind : Complete Main Default : Yes Forced : No Audio #2 ID : 3 Format : AAC LC Format/Info : Advanced Audio Codec Low Complexity Codec ID : A_AAC-2 Duration : 1 h 31 min Bit rate : 230 kb/s Channel(s) : 2 channels Channel layout : L R Sampling rate : 48.0 kHz Frame rate : 46.875 FPS (1024 SPF) Compression mode : Lossy Stream size : 151 MiB (8%) Language : English Default : No Forced : No Text #1 ID : 4 Format : UTF-8 Codec ID : S_TEXT/UTF8 Codec ID/Info : UTF-8 Plain Text Duration : 1 h 24 min Bit rate : 41 b/s Frame rate : 0.187 FPS Count of elements : 946 Stream size : 25.9 KiB (0%) Language : English Default : No Forced : No Text #2 ID : 5 Format : UTF-8 Codec ID : S_TEXT/UTF8 Codec ID/Info : UTF-8 Plain Text Duration : 1 h 31 min Bit rate : 46 b/s Frame rate : 0.218 FPS Count of elements : 1199 Stream size : 30.9 KiB (0%) Title : Hard of hearing Language : English Default : No Forced : No
[+] Скриншоты

Всего файлов в раздаче: 1 
Смерть в горах (High Desert Kill) BDRip-AVC [by ale_x2008].mkv1.78 GB

Похожие раздачи по запросу - Смерть
2024-06-13 magnet Смерть в прерии / Terror on the Prairie (2022) BDRip 720p от DoMiNo & селезень | D, P 4.26 GB ↑ 0 ↓ 0
2024-06-13 magnet Смерть в прерии / Terror on the Prairie (2022) BDRemux 1080p | D, P 17.55 GB ↑ 0 ↓ 0
2024-06-13 magnet Смерть в прерии / Terror on the Prairie (2022) BDRip от MegaPeer | D 1.46 GB ↑ 0 ↓ 0
2024-06-13 magnet Смерть в прерии / Terror on the Prairie (2022) BDRip-AVC от DoMiNo & селезень | D, P 2.19 GB ↑ 0 ↓ 0
2024-06-10 magnet Внезапная смерть / Sudden Death (1995) BDRip от New-Team | P 745.84 MB ↑ 0 ↓ 0
2024-06-10 magnet Влада Ольховская - Северная корона 11. Смерть на Марсе (2024) МР3 591.26 MB ↑ 0 ↓ 0
2024-06-09 magnet А. Никл, Виктор Молотов - Видящий смерть 1, Тринадцатый (2024) МР3 509.33 MB ↑ 0 ↓ 0

Комментарии


Зарегистрируйтесь чтобы добавить комментарий
Торрент клиент
byTorrent - программа для загрузки торрент-файлов.

Скачать byTorrent.exe (1,5 МБ)

Скачать byTorrent.zip (0,6 МБ)

Поддержи torrent.by
российских рублей
(300 российских рублей это 4$)

Обратная связь rss

End game ©