↑↓torrent.by
Поиск
Логин:  Регистрация
Пароль:

Ride - Interplay [24-bit Hi-Res] (2024) FLAC

download Скачать торрент-файл   magnet Магнитная ссылка Размер: 737.78 MB Добавлен: 2024-05-19 17:00
Пиры будут получены из сети DHT
Последний сидер был замечен 2024-05-19 23:11
Название: Interplay Исполнитель: Ride Год: 2024 Жанр: Rock, Alternative-Rock, Psychedelic-Rock, Shoegaze Издатель (лейбл): Wichita Recordings Продолжительность: 00:58:46 Формат/Кодек: FLAC Тип рипа: Tracks Битрейт аудио: Lossless Разрядность: 24 Bit/48 kHz
[+] Трек-лист 01. Peace Sign (00:04:38) 02. Last Frontier (00:04:10) 03. Light In A Quiet Room (00:06:02) 04. Monaco (00:04:15) 05. I Came To See The Wreck (00:05:58) 06. Stay Free (00:05:01) 07. Last Night I Went Somewhere To Dream (00:04:14) 08. Sunrise Chaser (00:04:18) 09. Midnight Rider (00:04:23) 10. Portland Rocks (00:05:02) 11. Essaouira (00:07:10) 12. Yesterday Is Just A Song (00:03:35)
[+] DRM foobar2000 1.5.5 / Замер динамического диапазона (DR) 1.1.1 ------------------------------------------------------------------------------- Анализ: Ride / Interplay -------------------------------------------------------------------------------- DR Пики RMS Продолжительность трека -------------------------------------------------------------------------------- DR5 -0.16 дБ -6.49 дБ 4:38 01-Peace Sign DR5 -0.16 дБ -5.54 дБ 4:10 02-Last Frontier DR5 -0.16 дБ -9.01 дБ 6:02 03-Light In A Quiet Room DR5 -0.16 дБ -5.84 дБ 4:15 04-Monaco DR5 -0.16 дБ -6.75 дБ 5:58 05-I Came To See The Wreck DR6 -0.16 дБ -7.49 дБ 5:01 06-Stay Free DR5 -0.16 дБ -6.16 дБ 4:14 07-Last Night I Went Somewhere To Dream DR5 -0.16 дБ -8.63 дБ 4:18 08-Sunrise Chaser DR6 -0.16 дБ -6.69 дБ 4:23 09-Midnight Rider DR5 -0.16 дБ -5.95 дБ 5:02 10-Portland Rocks DR5 -0.16 дБ -7.80 дБ 7:10 11-Essaouira DR6 -0.16 дБ -8.51 дБ 3:35 12-Yesterday Is Just A Song -------------------------------------------------------------------------------- Количество треков: 12 Реальные значения DR: DR5 Частота: 48000 Гц Каналов: 2 Разрядность: 24 Битрейт: 1511 кбит/с Кодек: FLAC ================================================================================
Время раздачи: 24/7 (минимум до появления первых 3-5 скачавших, на раздачи не возвращаюсь) Первое правило участника файлообмена: "Скачал сам - дай скачать другому!"

Всего файлов в раздаче: 13 
01. Peace Sign.flac56.90 MB
02. Last Frontier.flac52.74 MB
03. Light in a Quiet Room.flac74.66 MB
04. Monaco.flac57.29 MB
05. I Came to See the Wreck.flac75.04 MB
06. Stay Free.flac59.39 MB
07. Last Night I Went Somewhere to Dream.flac55.62 MB
08. Sunrise Chaser.flac53.85 MB
09. Midnight Rider.flac57.04 MB
10. Portland Rocks.flac69.99 MB
Показать все файлы

Похожие раздачи по запросу - Ride
2024-06-11 magnet VA - Bad Boys: Ride Or Die Soundtrack (2024) MP3 57.67 MB ↑ 0 ↓ 0
2024-06-10 magnet VA - Bad Boys: Ride Or Die Soundtrack [24-bit Hi-Res] (2024) FLAC 288.55 MB ↑ 0 ↓ 0
2024-05-26 magnet Free Ride - Hard Livin' (2024) MP3 87.81 MB ↑ 0 ↓ 0
2023-08-26 magnet Кунг-фу жеребец / Long ma jing shen / Ride On (2023) HDRip-AVC от DoMiNo & селезень | D, P 1.09 GB ↑ 0 ↓ 0
2023-08-13 magnet Кунг-фу жеребец / Long ma jing shen / Ride On (2023) WEB-DL 1080p | D, P 6.76 GB ↑ 0 ↓ 0

Кто качает (только для создателя раздачи и модераторов): Локальные пиры отсутствуют

Комментарии


Зарегистрируйтесь чтобы добавить комментарий
Торрент клиент
byTorrent - программа для загрузки торрент-файлов.

Скачать byTorrent.exe (1,5 МБ)

Скачать byTorrent.zip (0,6 МБ)

Поддержи torrent.by
российских рублей
(300 российских рублей это 4$)

Обратная связь rss

End game ©