↑↓torrent.by
Поиск
Логин:  Регистрация
Пароль:

Франклин / Franklin [S01] (2024) WEB-DL 1080p от Jaskier | P

download Скачать торрент-файл   magnet Магнитная ссылка Размер: 35.68 GB Раздают: 0 Качают: 1 Добавлен: 2024-05-19 17:00
Пиры будут получены из сети DHT
Последний сидер был замечен 2024-05-24 15:09
Информация о фильме Название: Франклин Оригинальное название: Franklin Год выхода: 2024 Жанр: биография, история, драма Режиссер: Тимоти Ван Паттен В ролях: Майкл Дуглас, Ноа Джуп, Оливье Клавери, Марк Дюре, Лили Дюпон, Ксавье Броссар, Дэниэл Мейс, Ассаад Буаб, Людивин Санье, Теодор Пеллерен О фильме: 1776 год. Бенджамин Франклин отправляется в Париж, чтобы заключить союз с французами против англичан. 70-летний политик, не обладая дипломатической подготовкой, должен перехитрить британских шпионов и французских информаторов и отстоять независимость США. Страна: США Студия: ITV Studios America, Apple Studios, Flame Ventures Продолжительность: ~01:00:00 Перевод: Профессиональный (многоголосый закадровый) Jaskier Файл Кодек: MKV Качество: WEB-DL 1080p Видео: AVC, 1920x872 (2.2:1), 23.976 fps, ~9774 kbps Звук: Аудио 1: Русский, AC-3, 48 kHz, 6 ch, 384 kbps | Jaskier Аудио 2: Английский, E-AC-3 JOC, 48 kHz, 6 ch, 768 kbps Субтитры: Русские, Английские (Forced, Full, SDH) Семпл
[+] Список серий 01. Sauce for Prayers 02. Welcome, Mischief 03. Pride and Gout 04. Small Revenge 05. The Natural State of Man 06. Beauty and Folly 07. Begin by Creeping 08. Think of Three Things
[+] MediaInfo General Unique ID : 199345573519151349670272101721610530345 (0x95F88F993FFA39E5A09A7AE322362E29) Complete name : E:TorrentFranklin.2024.S01.1080p.WEB.H264-Jaskierfranklin.2024.s01e01.1080p.web.h264-Jaskier.mkv Format : Matroska Format version : Version 4 File size : 4.63 GiB Duration : 59 min 26 s Overall bit rate : 11.1 Mb/s Frame rate : 23.976 FPS Encoded date : 2024-04-14 14:29:29 UTC Writing application : mkvmerge v6.6.0 ('The Edge Of The In Between') built on Dec 1 2013 17:55:00 Writing library : libebml v1.3.0 + libmatroska v1.4.1 Video ID : 1 Format : AVC Format/Info : Advanced Video Codec Format profile : High@L4 Format settings : CABAC / 4 Ref Frames Format settings, CABAC : Yes Format settings, Reference frames : 4 frames Format settings, Slice count : 8 slices per frame Codec ID : V_MPEG4/ISO/AVC Duration : 59 min 26 s Bit rate : 9 774 kb/s Width : 1 920 pixels Height : 872 pixels Display aspect ratio : 2.2:1 Frame rate mode : Constant Frame rate : 23.976 (24000/1001) FPS Original frame rate : 47.952 (48000/1001) FPS Color space : YUV Chroma subsampling : 4:2:0 Bit depth : 8 bits Scan type : Progressive Bits/(Pixel*Frame) : 0.243 Stream size : 4.06 GiB (88%) Language : English Default : Yes Forced : No Color range : Limited Color primaries : BT.709 Transfer characteristics : BT.709 Matrix coefficients : BT.709 Audio #1 ID : 2 Format : AC-3 Format/Info : Audio Coding 3 Commercial name : Dolby Digital Codec ID : A_AC3 Duration : 59 min 26 s Bit rate mode : Constant Bit rate : 384 kb/s Channel(s) : 6 channels Channel layout : L R C LFE Ls Rs Sampling rate : 48.0 kHz Frame rate : 31.250 FPS (1536 SPF) Compression mode : Lossy Stream size : 163 MiB (3%) Title : Jaskier Language : Russian Service kind : Complete Main Default : Yes Forced : No Audio #2 ID : 3 Format : E-AC-3 JOC Format/Info : Enhanced AC-3 with Joint Object Coding Commercial name : Dolby Digital Plus with Dolby Atmos Codec ID : A_EAC3 Duration : 59 min 26 s Bit rate mode : Constant Bit rate : 768 kb/s Channel(s) : 6 channels Channel layout : L R C LFE Ls Rs Sampling rate : 48.0 kHz Frame rate : 31.250 FPS (1536 SPF) Compression mode : Lossy Stream size : 326 MiB (7%) Title : Original Language : English Service kind : Complete Main Default : No Forced : No Complexity index : 16 Number of dynamic objects : 15 Bed channel count : 1 channel Bed channel configuration : LFE Text #1 ID : 4 Format : UTF-8 Codec ID : S_TEXT/UTF8 Codec ID/Info : UTF-8 Plain Text Language : Russian Default : No Forced : No Text #2 ID : 5 Format : UTF-8 Codec ID : S_TEXT/UTF8 Codec ID/Info : UTF-8 Plain Text Title : Forced Language : English Default : No Forced : No Text #3 ID : 6 Format : UTF-8 Codec ID : S_TEXT/UTF8 Codec ID/Info : UTF-8 Plain Text Language : English Default : No Forced : No Text #4 ID : 7 Format : UTF-8 Codec ID : S_TEXT/UTF8 Codec ID/Info : UTF-8 Plain Text Title : SDH Language : English Default : No Forced : No
[+] Скриншоты
Релиз от: Jaskier

Всего файлов в раздаче: 8 
franklin.2024.S01E06.1080p.web.h264-Jaskier.mkv4.70 GB
franklin.2024.s01e01.1080p.web.h264-Jaskier.mkv4.63 GB
franklin.2024.s01e02.1080p.web.h264-Jaskier.mkv3.77 GB
franklin.2024.s01e03.1080p.web.h264-Jaskier.mkv4.66 GB
franklin.2024.s01e04.1080p.web.h264-Jaskier.mkv4.70 GB
franklin.2024.s01e05.1080p.web.h264-Jaskier.mkv3.92 GB
franklin.2024.s01e07.1080p.web.h264-Jaskier.mkv4.33 GB
franklin.2024.s01e08.1080p.web.h264-Jaskier.mkv4.97 GB

Похожие раздачи по запросу - Франклин
2024-05-21 magnet Франклин / Franklin [S01] (2024) WEBRip | ViruseProject 5.19 GB ↑ 0 ↓ 0
2024-05-18 magnet Франклин / Franklin [S01] (2024) WEBRip 1080p | ViruseProject 15.05 GB ↑ 0 ↓ 0
2024-05-18 magnet Франклин / Franklin [S01] (2024) WEBRip 1080p от Kerob | L2 17.02 GB ↑ 0 ↓ 0
2024-05-18 magnet Франклин / Franklin [S01] (2024) WEBRip от Kerob | L2 4.30 GB ↑ 0 ↓ 0
2024-05-18 magnet Франклин / Franklin [S01] (2024) WEBRip | ViruseProject 5.02 GB ↑ 0 ↓ 0

Кто качает (только для создателя раздачи и модераторов):
ПользовательIP:портОтдалПринялОстатокСидируетТоррент клиентОбновился
1 Аноним 131.6.188.46:37385 7.58 MB 1.76 GB 35.61 GB нет -qB4390- 04:51 2024-06-14

Комментарии


Зарегистрируйтесь чтобы добавить комментарий
Торрент клиент
byTorrent - программа для загрузки торрент-файлов.

Скачать byTorrent.exe (1,5 МБ)

Скачать byTorrent.zip (0,6 МБ)

Поддержи torrent.by
российских рублей
(300 российских рублей это 4$)

Обратная связь rss

End game ©